<?xml version="1.0" standalone="no"?>
<!DOCTYPE svg PUBLIC "-//W3C//DTD SVG 1.1//EN" "http://www.w3.org/Graphics/SVG/1.1/DTD/svg11.dtd" >
<svg xmlns="http://www.w3.org/2000/svg" xmlns:xlink="http://www.w3.org/1999/xlink" version="1.1">
<metadata>
Created by FontForge 20170731 at Sat Sep 30 20:33:50 2017
 By Aleksey,,,
Copyright (c) 2015 by Reza Bakhtiarifard / Bakh. All rights reserved.
</metadata>
<defs>
<font id="YekanBakh-Bold" horiz-adv-x="0" >
  <font-face 
    font-family="Yekan Bakh"
    font-weight="700"
    font-stretch="normal"
    units-per-em="1000"
    panose-1="1 0 5 4 0 0 0 2 0 4"
    ascent="800"
    descent="-200"
    bbox="-177 -491 1358 925"
    underline-thickness="25"
    underline-position="-154"
    unicode-range="U+000A-FFFC"
  />
<missing-glyph horiz-adv-x="544" 
d="M462 0h-396v610h396v-610zM164 500v-390h200v390h-200z" />
    <glyph glyph-name="allah" unicode="&#x627;&#xfedf;&#xfee0;&#xfeea;" horiz-adv-x="1245" arabic-form="isolated" 
d="M306 466h99v-283q0 -39 11 -56t50 -17h73q59 0 59 52v237h102v-208q0 -38 17.5 -59.5t60.5 -21.5h22q60 0 60 52v326h102v-341q0 -36 -12 -63.5t-32 -46t-47.5 -28t-57.5 -9.5h-39q-34 0 -67.5 12.5t-56.5 50.5q-24 -38 -55 -50.5t-60 -12.5h-72q-51 0 -83 18t-48 61
q-25 -28 -61 -35.5t-68 -7.5q-75 0 -113 40t-38 125q0 37 10.5 72.5t31 63.5t52 45t73.5 17h87v67zM228 297q-42 0 -60 -24.5t-18 -63.5q0 -36 17 -52t57 -16t61 16.5t21 44.5v95h-78zM607 925h64v-174h-64v174zM671 678v-117h26q19 0 31.5 8.5t12.5 36.5v72h64v-61
q0 -39 -10 -62.5t-25 -36t-31.5 -16.5t-29.5 -4h-35q-11 0 -19.5 6t-15.5 13q-6 -7 -14.5 -13t-19.5 -6h-39q-13 0 -29 4t-30 16.5t-23.5 36t-9.5 62.5v61h64v-72q0 -28 12.5 -36.5t31.5 -8.5h25v117h64zM1079 620h102v-620h-102v620z" />
    <glyph glyph-name="la.aa" unicode="&#xfedf;&#xfe82;" horiz-adv-x="488" arabic-form="isolated" 
d="M64 470h102v-360h97q59 0 59 52v458h102v-473q0 -36 -12 -63.5t-32 -46t-47.5 -28t-57.5 -9.5h-211v470zM62 573q-20 0 -31 -4t-19 -24l-21 -46l-64 31l31 68q9 20 17.5 33t19.5 21t26 11.5t37 3.5h202l-4 -94h-194z" />
    <glyph glyph-name="la.aa.fina" unicode="&#xfee0;&#xfe82;" horiz-adv-x="513" arabic-form="final" 
d="M64 0v470h102v-360h89q67 0 67 65v445h102v-445q0 -35 22 -50t53 -15h14q22 0 22 -53q0 -57 -22 -57h-19q-37 0 -68.5 12.5t-54.5 50.5q-25 -38 -54 -50.5t-62 -12.5h-191zM62 573q-20 0 -31 -4t-19 -24l-21 -46l-64 31l31 68q9 20 17.5 33t19.5 21t26 11.5t37 3.5h202
l-4 -94h-194z" />
    <glyph glyph-name="la.thmz" unicode="&#xfedf;&#xfe84;" horiz-adv-x="488" arabic-form="isolated" 
d="M64 459h102v-349h97q59 0 59 52v458h102v-473q0 -36 -12 -63.5t-32 -46t-47.5 -28t-57.5 -9.5h-211v459zM220 591l-187 -94l-27 55l61 29q-23 13 -34 33.5t-11 43.5q0 42 27.5 68t69.5 26h47l-5 -63h-31q-22 0 -33 -11t-11 -27t11 -25.5t26 -9.5q11 0 29.5 8t42.5 21z
" />
    <glyph glyph-name="la.thmz.fina" unicode="&#xfee0;&#xfe84;" horiz-adv-x="513" arabic-form="final" 
d="M64 0v459h102v-349h89q67 0 67 65v445h102v-445q0 -35 22 -50t53 -15h14q22 0 22 -53q0 -57 -22 -57h-19q-37 0 -68.5 12.5t-54.5 50.5q-25 -38 -54 -50.5t-62 -12.5h-191zM220 591l-187 -94l-27 55l61 29q-23 13 -34 33.5t-11 43.5q0 42 27.5 68t69.5 26h47l-5 -63h-31
q-22 0 -33 -11t-11 -27t11 -25.5t26 -9.5q11 0 29.5 8t42.5 21z" />
    <glyph glyph-name="la.bhmz" unicode="&#xfedf;&#xfe88;" horiz-adv-x="488" arabic-form="isolated" 
d="M64 620h102v-510h97q59 0 59 52v458h102v-473q0 -36 -12 -63.5t-32 -46t-47.5 -28t-57.5 -9.5h-211v620zM238 -262l-187 -94l-27 55l61 29q-23 13 -34 33.5t-11 43.5q0 42 27.5 68t69.5 26h47l-5 -63h-31q-22 0 -33 -11t-11 -27t11 -25.5t26 -9.5q11 0 29.5 8t42.5 21z
" />
    <glyph glyph-name="la.bhmz.fina" unicode="&#xfee0;&#xfe88;" horiz-adv-x="513" arabic-form="final" 
d="M64 0v620h102v-510h89q67 0 67 65v445h102v-445q0 -35 22 -50t53 -15h14q22 0 22 -53q0 -57 -22 -57h-19q-37 0 -68.5 12.5t-54.5 50.5q-25 -38 -54 -50.5t-62 -12.5h-191zM238 -262l-187 -94l-27 55l61 29q-23 13 -34 33.5t-11 43.5q0 42 27.5 68t69.5 26h47l-5 -63h-31
q-22 0 -33 -11t-11 -27t11 -25.5t26 -9.5q11 0 29.5 8t42.5 21z" />
    <glyph glyph-name="la" unicode="&#xfedf;&#xfe8e;" horiz-adv-x="488" arabic-form="isolated" 
d="M64 620h102v-510h97q59 0 59 52v458h102v-473q0 -36 -12 -63.5t-32 -46t-47.5 -28t-57.5 -9.5h-211v620z" />
    <glyph glyph-name="la.fina" unicode="&#xfee0;&#xfe8e;" horiz-adv-x="513" arabic-form="final" 
d="M64 0v620h102v-510h89q67 0 67 65v445h102v-445q0 -35 22 -50t53 -15h14q22 0 22 -53q0 -57 -22 -57h-19q-37 0 -68.5 12.5t-54.5 50.5q-25 -38 -54 -50.5t-62 -12.5h-191z" />
    <glyph glyph-name="la.tvasla" unicode="&#xfedf;&#xfb51;" horiz-adv-x="488" 
d="M64 465h102v-355h97q59 0 59 52v458h102v-473q0 -36 -12 -63.5t-32 -46t-47.5 -28t-57.5 -9.5h-211v465zM43 593q37 72 70.5 103t70.5 31q33 0 57.5 -26t24.5 -66q0 -16 -5.5 -34t-18.5 -33t-34 -25t-51 -10h-132l-33 29v90l51 5v-64zM161 592q23 0 37 10t14 30
q0 15 -9 25.5t-26 10.5q-37 0 -82 -76h66z" />
    <glyph glyph-name="la.tvasla.fina" unicode="&#xfee0;&#xfb51;" horiz-adv-x="513" 
d="M64 0v465h102v-355h89q67 0 67 65v445h102v-445q0 -35 22 -50t53 -15h14q22 0 22 -53q0 -57 -22 -57h-19q-37 0 -68.5 12.5t-54.5 50.5q-25 -38 -54 -50.5t-62 -12.5h-191zM43 593q37 72 70.5 103t70.5 31q33 0 57.5 -26t24.5 -66q0 -16 -5.5 -34t-18.5 -33t-34 -25
t-51 -10h-132l-33 29v90l51 5v-64zM161 592q23 0 37 10t14 30q0 15 -9 25.5t-26 10.5q-37 0 -82 -76h66z" />
    <glyph glyph-name="lellah" unicode="&#xfedf;&#x650;&#xfee0;&#x654;&#xfeea;" horiz-adv-x="1024" 
d="M306 466h99v-283q0 -39 11 -56t50 -17h73q59 0 59 52v237h102v-208q0 -38 17.5 -59.5t60.5 -21.5h22q60 0 60 52v326h102v-341q0 -36 -12 -63.5t-32 -46t-47.5 -28t-57.5 -9.5h-39q-34 0 -67.5 12.5t-56.5 50.5q-24 -38 -55 -50.5t-60 -12.5h-72q-51 0 -83 18t-48 61
q-25 -28 -61 -35.5t-68 -7.5q-75 0 -113 40t-38 125q0 37 10.5 72.5t31 63.5t52 45t73.5 17h87v67zM228 297q-42 0 -60 -24.5t-18 -63.5q0 -36 17 -52t57 -16t61 16.5t21 44.5v95h-78zM607 925h64v-174h-64v174zM671 678v-117h26q19 0 31.5 8.5t12.5 36.5v72h64v-61
q0 -39 -10 -62.5t-25 -36t-31.5 -16.5t-29.5 -4h-35q-11 0 -19.5 6t-15.5 13q-6 -7 -14.5 -13t-19.5 -6h-39q-13 0 -29 4t-30 16.5t-23.5 36t-9.5 62.5v61h64v-72q0 -28 12.5 -36.5t31.5 -8.5h25v117h64z" />
    <glyph glyph-name="hmz" unicode="&#x621;" horiz-adv-x="442" arabic-form="isolated" 
d="M50 87l89 44q-40 20 -60 53t-20 73q0 35 12.5 65.5t34.5 53t51.5 35.5t62.5 13q25 0 45.5 -6t46.5 -21l-32 -97q-12 5 -26.5 9t-29.5 4q-32 0 -50.5 -16.5t-18.5 -44.5q0 -25 17 -41.5t48 -16.5q12 0 25 2.5t28.5 8.5t35 16t46.5 24l45 -93l-305 -158z" />
    <glyph glyph-name="alef.aa" unicode="&#x622;" horiz-adv-x="230" arabic-form="isolated" 
d="M64 470h102v-470h-102v470zM59 573q-20 0 -31 -4t-19 -24l-21 -46l-64 31l31 68q9 20 17.5 33t19.5 21t26 11.5t37 3.5h202l-4 -94h-194z" />
    <glyph glyph-name="alef.thmz" unicode="&#x623;" horiz-adv-x="230" arabic-form="isolated" 
d="M64 459h102v-459h-102v459zM216 591l-187 -94l-27 55l61 29q-23 13 -34 33.5t-11 43.5q0 42 27.5 68t69.5 26h47l-5 -63h-31q-22 0 -33 -11t-11 -27t11 -25.5t26 -9.5q11 0 29.5 8t42.5 21z" />
    <glyph glyph-name="vav.thmz" unicode="&#x624;" horiz-adv-x="447" arabic-form="isolated" 
d="M144 -133q38 0 65.5 10.5t45.5 28.5t28 42.5t12 51.5h-68q-52 0 -85 11t-52 32.5t-26.5 52.5t-7.5 70t11 73.5t32.5 60.5t53.5 41.5t74 15.5q34 0 64.5 -11t53.5 -35t36.5 -62t13.5 -93v-140q0 -51 -17 -98t-48.5 -82.5t-77.5 -56.5t-103 -21h-101l-6 109h102zM154 173
q0 -35 15.5 -49t61.5 -14h66v47q0 52 -19.5 73t-54.5 21q-33 0 -51 -20t-18 -58zM323 506l-187 -94l-27 55l61 29q-23 13 -34 33.5t-11 43.5q0 42 27.5 68t69.5 26h47l-5 -63h-31q-22 0 -33 -11t-11 -27t11 -25.5t26 -9.5q11 0 29.5 8t42.5 21z" />
    <glyph glyph-name="alef.bhmz" unicode="&#x625;" horiz-adv-x="230" arabic-form="isolated" 
d="M64 620h102v-620h-102v620zM225 -262l-187 -94l-27 55l61 29q-23 13 -34 33.5t-11 43.5q0 42 27.5 68t69.5 26h47l-5 -63h-31q-22 0 -33 -11t-11 -27t11 -25.5t26 -9.5q11 0 29.5 8t42.5 21z" />
    <glyph glyph-name="ye.thmz" unicode="&#x626;" horiz-adv-x="676" arabic-form="isolated" 
d="M356 -133q81 0 126.5 28t45.5 73q0 21 -11 33.5t-39 12.5h-172v191q0 39 12 71.5t34.5 56t54.5 36.5t72 13h115l5 -110h-122q-29 0 -49 -17.5t-20 -52.5v-79h88q39 0 64.5 -10t40.5 -28t21.5 -43t6.5 -56q0 -48 -19.5 -90t-54.5 -72.5t-82.5 -48t-102.5 -17.5h-87
q-112 0 -174 69t-62 189v179h101v-175q0 -35 8 -63t25.5 -48t46 -31t69.5 -11h59zM279 386l-187 -94l-27 55l61 29q-23 13 -34 33.5t-11 43.5q0 42 27.5 68t69.5 26h47l-5 -63h-31q-22 0 -33 -11t-11 -27t11 -25.5t26 -9.5q11 0 29.5 8t42.5 21z" />
    <glyph glyph-name="alef" unicode="&#x627;" horiz-adv-x="230" arabic-form="isolated" 
d="M64 620h102v-620h-102v620z" />
    <glyph glyph-name="be" unicode="&#x628;" horiz-adv-x="762" arabic-form="isolated" 
d="M205 0q-41 0 -70.5 12.5t-48 33.5t-27 49t-8.5 59v142h101v-116q0 -33 15 -51.5t61 -18.5h314q36 0 51.5 16.5t15.5 48.5v118h102v-142q0 -38 -13 -66.5t-34.5 -47t-49 -28t-56.5 -9.5h-353zM439 -214h-113v102h113v-102z" />
    <glyph glyph-name="te.marbuta" unicode="&#x629;" horiz-adv-x="450" arabic-form="isolated" 
d="M47 154q0 29 7.5 55t22 52t36.5 52.5t51 57.5l-46 46l69 74q62 -61 103.5 -106t66.5 -81.5t35.5 -68.5t10.5 -66q0 -37 -14 -68t-38 -53.5t-57.5 -35t-72.5 -12.5t-71 11t-55 31.5t-35.5 48.5t-12.5 63zM301 177q0 12 -3 23.5t-11 25.5t-23.5 31.5t-39.5 41.5
q-25 -24 -40 -42.5t-23 -33t-10.5 -26t-2.5 -22.5q0 -26 19 -45.5t57 -19.5q37 0 57 20t20 47zM338 559h-104v98h104v-98zM195 559h-104v98h104v-98z" />
    <glyph glyph-name="te" unicode="&#x62a;" horiz-adv-x="762" arabic-form="isolated" 
d="M205 0q-41 0 -70.5 12.5t-48 33.5t-27 49t-8.5 59v142h101v-116q0 -33 15 -51.5t61 -18.5h314q36 0 51.5 16.5t15.5 48.5v118h102v-142q0 -38 -13 -66.5t-34.5 -47t-49 -28t-56.5 -9.5h-353zM504 374h-104v98h104v-98zM361 374h-104v98h104v-98z" />
    <glyph glyph-name="the" unicode="&#x62b;" horiz-adv-x="762" arabic-form="isolated" 
d="M205 0q-41 0 -70.5 12.5t-48 33.5t-27 49t-8.5 59v142h101v-116q0 -33 15 -51.5t61 -18.5h314q36 0 51.5 16.5t15.5 48.5v118h102v-142q0 -38 -13 -66.5t-34.5 -47t-49 -28t-56.5 -9.5h-353zM434 514h-106v97h106v-97zM504 374h-104v98h104v-98zM361 374h-104v98h104v-98
z" />
    <glyph glyph-name="jim" unicode="&#x62c;" horiz-adv-x="539" arabic-form="isolated" 
d="M377 224q-7 13 -13 23t-15.5 16t-23 9t-35.5 3h-207l6 110h217q28 0 55.5 -7.5t51.5 -29.5t44.5 -62.5t34.5 -107.5l-198 -115q-45 -27 -74.5 -52t-46.5 -49t-23.5 -48t-6.5 -48q0 -65 38 -103.5t124 -38.5h183l-5 -109h-179q-70 0 -119.5 19t-81.5 51.5t-47 76.5t-15 94
q0 45 10.5 84t34.5 74.5t63.5 69t96.5 66.5zM419 -155h-113v102h113v-102z" />
    <glyph glyph-name="him" unicode="&#x62d;" horiz-adv-x="539" arabic-form="isolated" 
d="M377 224q-7 13 -13 23t-15.5 16t-23 9t-35.5 3h-207l6 110h217q28 0 55.5 -7.5t51.5 -29.5t44.5 -62.5t34.5 -107.5l-198 -115q-45 -27 -74.5 -52t-46.5 -49t-23.5 -48t-6.5 -48q0 -65 38 -103.5t124 -38.5h183l-5 -109h-179q-70 0 -119.5 19t-81.5 51.5t-47 76.5t-15 94
q0 45 10.5 84t34.5 74.5t63.5 69t96.5 66.5z" />
    <glyph glyph-name="khe" unicode="&#x62e;" horiz-adv-x="539" arabic-form="isolated" 
d="M377 224q-7 13 -13 23t-15.5 16t-23 9t-35.5 3h-207l6 110h217q28 0 55.5 -7.5t51.5 -29.5t44.5 -62.5t34.5 -107.5l-198 -115q-45 -27 -74.5 -52t-46.5 -49t-23.5 -48t-6.5 -48q0 -65 38 -103.5t124 -38.5h183l-5 -109h-179q-70 0 -119.5 19t-81.5 51.5t-47 76.5t-15 94
q0 45 10.5 84t34.5 74.5t63.5 69t96.5 66.5zM311 490h-113v102h113v-102z" />
    <glyph glyph-name="dal" unicode="&#x62f;" horiz-adv-x="506" arabic-form="isolated" 
d="M407 250q27 -31 39.5 -61.5t12.5 -59.5q0 -27 -9.5 -50.5t-28.5 -41t-47.5 -27.5t-65.5 -10h-267l-5 110h255q49 0 49 37q0 18 -17 37l-170 194l79 74z" />
    <glyph glyph-name="zal" unicode="&#x630;" horiz-adv-x="506" arabic-form="isolated" 
d="M407 250q27 -31 39.5 -61.5t12.5 -59.5q0 -27 -9.5 -50.5t-28.5 -41t-47.5 -27.5t-65.5 -10h-267l-5 110h255q49 0 49 37q0 18 -17 37l-170 194l79 74zM283 528h-113v102h113v-102z" />
    <glyph glyph-name="re" unicode="&#x631;" horiz-adv-x="242" arabic-form="isolated" 
d="M190 16q0 -54 -18.5 -101t-51 -82t-77 -55t-95.5 -20h-63l-5 109h42q45 0 76.5 12.5t51.5 33.5t29 48t9 55v277h102v-277v0z" />
    <glyph glyph-name="ze" unicode="&#x632;" horiz-adv-x="242" arabic-form="isolated" 
d="M190 16q0 -54 -18.5 -101t-51 -82t-77 -55t-95.5 -20h-63l-5 109h42q45 0 76.5 12.5t51.5 33.5t29 48t9 55v277h102v-277v0zM191 410h-113v102h113v-102z" />
    <glyph glyph-name="sin" unicode="&#x633;" horiz-adv-x="1123" arabic-form="isolated" 
d="M844 175q0 -35 18.5 -50t43.5 -15q30 0 46.5 16.5t16.5 48.5v118h102v-125q0 -83 -42 -125.5t-119 -42.5q-34 0 -65 12.5t-54 50.5q-24 -38 -55.5 -50.5t-63.5 -12.5q-28 0 -47.5 8.5t-32.5 22.5v-15q0 -51 -17 -98t-48.5 -82.5t-77.5 -56.5t-103 -21h-63q-112 0 -174 69
t-62 189v179h101v-175q0 -35 8 -63t25.5 -48t46 -31t69.5 -11h44q42 0 71.5 12.5t48 34t26.5 50t8 60.5v269h101v-119q0 -32 20.5 -48t51.5 -16q75 0 75 65v118h101v-118z" />
    <glyph glyph-name="shin" unicode="&#x634;" horiz-adv-x="1123" arabic-form="isolated" 
d="M844 175q0 -35 18.5 -50t43.5 -15q30 0 46.5 16.5t16.5 48.5v118h102v-125q0 -83 -42 -125.5t-119 -42.5q-34 0 -65 12.5t-54 50.5q-24 -38 -55.5 -50.5t-63.5 -12.5q-28 0 -47.5 8.5t-32.5 22.5v-15q0 -51 -17 -98t-48.5 -82.5t-77.5 -56.5t-103 -21h-63q-112 0 -174 69
t-62 189v179h101v-175q0 -35 8 -63t25.5 -48t46 -31t69.5 -11h44q42 0 71.5 12.5t48 34t26.5 50t8 60.5v269h101v-119q0 -32 20.5 -48t51.5 -16q75 0 75 65v118h101v-118zM845 550h-106v97h106v-97zM915 410h-104v98h104v-98zM772 410h-104v98h104v-98z" />
    <glyph glyph-name="sad" unicode="&#x635;" horiz-adv-x="1164" arabic-form="isolated" 
d="M1016 186q0 31 -21 56.5t-60 25.5q-36 0 -76.5 -36.5t-94.5 -121.5h178q32 0 53 19.5t21 56.5zM662 111q79 140 146.5 203.5t135.5 63.5q40 0 72 -15t54.5 -40.5t34.5 -61t12 -75.5q0 -35 -10.5 -68t-32.5 -59.5t-56 -42.5t-80 -16h-252q-29 0 -54 8.5t-40 27.5v-20
q0 -51 -17 -98t-48.5 -82.5t-77.5 -56.5t-103 -21h-63q-112 0 -174 69t-62 189v179h101v-175q0 -35 8 -63t25.5 -48t46 -31t69.5 -11h44q42 0 71.5 12.5t48 34t26.5 50t8 60.5v269h101v-99q0 -35 14 -58t52 -25z" />
    <glyph glyph-name="zad" unicode="&#x636;" horiz-adv-x="1164" arabic-form="isolated" 
d="M1016 186q0 31 -21 56.5t-60 25.5q-36 0 -76.5 -36.5t-94.5 -121.5h178q32 0 53 19.5t21 56.5zM662 111q79 140 146.5 203.5t135.5 63.5q40 0 72 -15t54.5 -40.5t34.5 -61t12 -75.5q0 -35 -10.5 -68t-32.5 -59.5t-56 -42.5t-80 -16h-252q-29 0 -54 8.5t-40 27.5v-20
q0 -51 -17 -98t-48.5 -82.5t-77.5 -56.5t-103 -21h-63q-112 0 -174 69t-62 189v179h101v-175q0 -35 8 -63t25.5 -48t46 -31t69.5 -11h44q42 0 71.5 12.5t48 34t26.5 50t8 60.5v269h101v-99q0 -35 14 -58t52 -25zM969 483h-113v102h113v-102z" />
    <glyph glyph-name="ta" unicode="&#x637;" horiz-adv-x="642" arabic-form="isolated" 
d="M132 620h102v-276q0 -29 -0.5 -53.5t-3.5 -51.5q51 73 96.5 106t94.5 33q40 0 72.5 -15t55 -40.5t34.5 -61t12 -75.5q0 -35 -10.5 -68t-32.5 -59.5t-56 -42.5t-81 -16h-368l-6 110h91v510zM493 186q0 31 -20.5 56.5t-59.5 25.5q-18 0 -36 -8t-39 -27t-46.5 -49t-58.5 -74
h187q32 0 52.5 19.5t20.5 56.5z" />
    <glyph glyph-name="za" unicode="&#x638;" horiz-adv-x="642" arabic-form="isolated" 
d="M132 620h102v-276q0 -29 -0.5 -53.5t-3.5 -51.5q51 73 96.5 106t94.5 33q40 0 72.5 -15t55 -40.5t34.5 -61t12 -75.5q0 -35 -10.5 -68t-32.5 -59.5t-56 -42.5t-81 -16h-368l-6 110h91v510zM493 186q0 31 -20.5 56.5t-59.5 25.5q-18 0 -36 -8t-39 -27t-46.5 -49t-58.5 -74
h187q32 0 52.5 19.5t20.5 56.5zM488 489h-113v102h113v-102z" />
    <glyph glyph-name="ein" unicode="&#x639;" horiz-adv-x="508" arabic-form="isolated" 
d="M160 55q-34 31 -45.5 70.5t-11.5 69.5q0 39 13 73t37 59t57.5 39.5t73.5 14.5q36 0 70 -11.5t71 -36.5l-44 -88q-30 14 -52 20t-45 6q-36 0 -57.5 -23.5t-21.5 -53.5q0 -38 25 -61t61 -23h155l-6 -110h-143q-36 0 -64 -12t-47 -31.5t-29 -45t-10 -53.5q0 -29 8 -53.5
t27 -42.5t49 -28t75 -10h171l-5 -109h-167q-69 0 -118.5 18t-81 49.5t-46 74.5t-14.5 93q0 62 27 115.5t88 89.5z" />
    <glyph glyph-name="qein" unicode="&#x63a;" horiz-adv-x="508" arabic-form="isolated" 
d="M160 55q-34 31 -45.5 70.5t-11.5 69.5q0 39 13 73t37 59t57.5 39.5t73.5 14.5q36 0 70 -11.5t71 -36.5l-44 -88q-30 14 -52 20t-45 6q-36 0 -57.5 -23.5t-21.5 -53.5q0 -38 25 -61t61 -23h155l-6 -110h-143q-36 0 -64 -12t-47 -31.5t-29 -45t-10 -53.5q0 -29 8 -53.5
t27 -42.5t49 -28t75 -10h171l-5 -109h-167q-69 0 -118.5 18t-81 49.5t-46 74.5t-14.5 93q0 62 27 115.5t88 89.5zM331 487h-113v102h113v-102z" />
    <glyph glyph-name="fe" unicode="&#x641;" horiz-adv-x="848" arabic-form="isolated" 
d="M456 258q0 27 10.5 56t31 52t51.5 38t72 15q39 0 71 -10t55 -33t35.5 -60.5t12.5 -92.5v-51q0 -81 -46.5 -126.5t-146.5 -45.5h-396q-41 0 -70.5 12.5t-48 33.5t-27 49t-8.5 59v142h102v-116q0 -33 14.5 -51.5t60.5 -18.5h210h42t30 -1t24 -3t26 -6q-35 15 -55.5 31.5
t-31.5 35.5t-14.5 41.5t-3.5 49.5zM549 239q0 -14 3.5 -26.5t16.5 -25.5t39 -28t72 -34q8 10 12.5 27.5t4.5 34.5v26q0 42 -17 69t-62 27q-35 0 -52 -22.5t-17 -47.5zM680 506h-113v102h113v-102z" />
    <glyph glyph-name="qaf" unicode="&#x642;" horiz-adv-x="703" arabic-form="isolated" 
d="M399 -133q37 0 64.5 10.5t46 28.5t28.5 42.5t13 51.5h-68q-52 0 -85 11t-52 32.5t-26.5 52.5t-7.5 70t11 73.5t32.5 60.5t53.5 41.5t74 15.5q34 0 64 -11t53 -35t36.5 -62t13.5 -93v-140q0 -51 -17 -98t-49 -82.5t-77 -56.5t-102 -21h-122q-112 0 -174 69t-62 189v179
h101v-175q0 -35 8 -63t25.5 -48t46 -31t69.5 -11h102zM410 173q0 -35 15.5 -49t61.5 -14h66v47q0 52 -19 73t-55 21q-33 0 -51 -20t-18 -58zM606 455h-104v98h104v-98zM463 455h-104v98h104v-98z" />
    <glyph glyph-name="kaf.arab" unicode="&#x643;" horiz-adv-x="759" arabic-form="isolated" 
d="M400 209v74q0 11 -3.5 16.5t-17.5 5.5h-128v130q0 55 28 84.5t84 29.5h59l6 -76h-60q-45 0 -45 -46v-44h90q34 0 47 -22t13 -48v-104h-73zM206 0q-41 0 -70.5 12.5t-48 33.5t-27 49t-8.5 59v142h102v-116q0 -33 14.5 -51.5t60.5 -18.5h298q67 0 67 65v445h101v-452
q0 -83 -41.5 -125.5t-118.5 -42.5h-329z" />
    <glyph glyph-name="lam" unicode="&#x644;" horiz-adv-x="660" arabic-form="isolated" 
d="M596 25q0 -57 -17.5 -105.5t-50 -84.5t-79 -56.5t-103.5 -20.5h-63q-112 0 -174 69t-62 189v179h101v-175q0 -35 8 -63t25.5 -48t46 -31t69.5 -11h44q42 0 71.5 12.5t48 34t26.5 50t8 60.5v596h101v-595z" />
    <glyph glyph-name="mim" unicode="&#x645;" horiz-adv-x="629" arabic-form="isolated" 
d="M403 0q-70 0 -113 36.5t-43 106.5v51q0 28 5 47t19 31h-23q-48 0 -71 -20t-23 -58v-436h-102v440q0 35 12.5 67.5t36.5 57.5t60 40t84 15h181q42 0 70.5 -11.5t46.5 -31t25.5 -45.5t7.5 -55v-88q0 -39 -13.5 -66.5t-37 -45.5t-55 -26.5t-67.5 -8.5zM411 110q35 0 51.5 15
t16.5 41v43q0 26 -13.5 42.5t-44.5 16.5h-21q-29 0 -42.5 -17t-13.5 -43v-40q0 -27 15.5 -42.5t51.5 -15.5z" />
    <glyph glyph-name="nun" unicode="&#x646;" horiz-adv-x="649" arabic-form="isolated" 
d="M596 25q0 -57 -17.5 -105.5t-50 -84.5t-79 -56.5t-103.5 -20.5h-63q-112 0 -174 69t-62 189v179h101v-175q0 -35 8 -63t25.5 -48t46 -31t69.5 -11h44q42 0 71.5 12.5t48 34t26.5 50t8 60.5v269h101v-268zM361 308h-113v102h113v-102z" />
    <glyph glyph-name="he" unicode="&#x647;" horiz-adv-x="450" arabic-form="isolated" 
d="M47 154q0 29 7.5 55t22 52t36.5 52.5t51 57.5l-46 46l69 74q62 -61 103.5 -106t66.5 -81.5t35.5 -68.5t10.5 -66q0 -37 -14 -68t-38 -53.5t-57.5 -35t-72.5 -12.5t-71 11t-55 31.5t-35.5 48.5t-12.5 63zM301 177q0 12 -3 23.5t-11 25.5t-23.5 31.5t-39.5 41.5
q-25 -24 -40 -42.5t-23 -33t-10.5 -26t-2.5 -22.5q0 -26 19 -45.5t57 -19.5q37 0 57 20t20 47z" />
    <glyph glyph-name="vav" unicode="&#x648;" horiz-adv-x="447" arabic-form="isolated" 
d="M144 -133q38 0 65.5 10.5t45.5 28.5t28 42.5t12 51.5h-68q-52 0 -85 11t-52 32.5t-26.5 52.5t-7.5 70t11 73.5t32.5 60.5t53.5 41.5t74 15.5q34 0 64.5 -11t53.5 -35t36.5 -62t13.5 -93v-140q0 -51 -17 -98t-48.5 -82.5t-77.5 -56.5t-103 -21h-101l-6 109h102zM154 173
q0 -35 15.5 -49t61.5 -14h66v47q0 52 -19.5 73t-54.5 21q-33 0 -51 -20t-18 -58z" />
    <glyph glyph-name="alef.maksura" unicode="&#x649;" horiz-adv-x="676" arabic-form="isolated" 
d="M356 -133q81 0 126.5 28t45.5 73q0 21 -11 33.5t-39 12.5h-172v191q0 39 12 71.5t34.5 56t54.5 36.5t72 13h115l5 -110h-122q-29 0 -49 -17.5t-20 -52.5v-79h88q39 0 64.5 -10t40.5 -28t21.5 -43t6.5 -56q0 -48 -19.5 -90t-54.5 -72.5t-82.5 -48t-102.5 -17.5h-87
q-112 0 -174 69t-62 189v179h101v-175q0 -35 8 -63t25.5 -48t46 -31t69.5 -11h59z" />
    <glyph glyph-name="ye.arab" unicode="&#x64a;" horiz-adv-x="676" arabic-form="isolated" 
d="M356 -133q81 0 126.5 28t45.5 73q0 21 -11 33.5t-39 12.5h-172v191q0 39 12 71.5t34.5 56t54.5 36.5t72 13h115l5 -110h-122q-29 0 -49 -17.5t-20 -52.5v-79h88q39 0 64.5 -10t40.5 -28t21.5 -43t6.5 -56q0 -48 -19.5 -90t-54.5 -72.5t-82.5 -48t-102.5 -17.5h-87
q-112 0 -174 69t-62 189v179h101v-175q0 -35 8 -63t25.5 -48t46 -31t69.5 -11h59zM449 -435h-103v98h103v-98zM305 -435h-103v98h103v-98z" />
    <glyph glyph-name="alef.vasla" unicode="&#x671;" horiz-adv-x="230" arabic-form="isolated" 
d="M64 465h102v-465h-102v465zM41 593q37 72 70.5 103t70.5 31q33 0 57.5 -26t24.5 -66q0 -16 -5.5 -34t-18.5 -33t-34 -25t-51 -10h-132l-33 29v90l51 5v-64zM159 592q23 0 37 10t14 30q0 15 -9 25.5t-26 10.5q-37 0 -82 -76h66z" />
    <glyph glyph-name="pe" unicode="&#x67e;" horiz-adv-x="762" arabic-form="isolated" 
d="M205 0q-41 0 -70.5 12.5t-48 33.5t-27 49t-8.5 59v142h101v-116q0 -33 15 -51.5t61 -18.5h314q36 0 51.5 16.5t15.5 48.5v118h102v-142q0 -38 -13 -66.5t-34.5 -47t-49 -28t-56.5 -9.5h-353zM439 -350h-106v98h106v-98zM509 -210h-104v98h104v-98zM366 -210h-104v98h104
v-98z" />
    <glyph glyph-name="che" unicode="&#x686;" horiz-adv-x="539" arabic-form="isolated" 
d="M377 224q-7 13 -13 23t-15.5 16t-23 9t-35.5 3h-207l6 110h217q28 0 55.5 -7.5t51.5 -29.5t44.5 -62.5t34.5 -107.5l-198 -115q-45 -27 -74.5 -52t-46.5 -49t-23.5 -48t-6.5 -48q0 -65 38 -103.5t124 -38.5h183l-5 -109h-179q-70 0 -119.5 19t-81.5 51.5t-47 76.5t-15 94
q0 45 10.5 84t34.5 74.5t63.5 69t96.5 66.5zM417.038 -216.228h-94.0762v86.9756h94.0762v-86.9756zM479.164 -91.9766h-92.3018v86.9766h92.3018v-86.9766zM352.25 -91.9766h-92.3018v86.9766h92.3018v-86.9766z" />
    <glyph glyph-name="re.bv.fina" unicode="&#x695;" horiz-adv-x="270" 
d="M185 16q0 -54 -18 -101t-49.5 -82t-75 -55t-94.5 -20h-63l-5 109h42q45 0 76.5 12.5t51.5 33.5t29 48t9 55v277h102v-119q0 -32 19.5 -48t49.5 -16h11q22 0 22 -53q0 -57 -22 -57h-11q-20 0 -40 6.5t-34 26.5v-17zM150 -280l50 -32l-90 -179h-54l-90 179l50 32l67 -138z
" />
    <glyph glyph-name="je" unicode="&#x698;" horiz-adv-x="242" arabic-form="isolated" 
d="M190 16q0 -54 -18.5 -101t-51 -82t-77 -55t-95.5 -20h-63l-5 109h42q45 0 76.5 12.5t51.5 33.5t29 48t9 55v277h102v-277v0zM180 550h-106v97h106v-97zM250 410h-104v98h104v-98zM107 410h-104v98h104v-98z" />
    <glyph glyph-name="veh" unicode="&#x6a4;" horiz-adv-x="847" arabic-form="isolated" 
d="M454 258q0 27 10.5 56t31.5 52t52 38t72 15q39 0 71 -10t55 -33t35.5 -60.5t12.5 -92.5v-51q0 -81 -46.5 -126.5t-146.5 -45.5h-396q-41 0 -70.5 12.5t-48 33.5t-27 49t-8.5 59v142h101v-116q0 -33 15 -51.5t61 -18.5h209h43t30 -1t24 -3t26 -6q-35 15 -56 31.5t-32 35.5
t-14.5 41.5t-3.5 49.5zM548 239q0 -14 3.5 -26.5t16.5 -25.5t39 -28t71 -34q9 10 13.5 27.5t4.5 34.5v26q0 42 -17 69t-62 27q-36 0 -52.5 -22.5t-16.5 -47.5zM676 646h-106v97h106v-97zM746 506h-104v98h104v-98zM603 506h-104v98h104v-98z" />
    <glyph glyph-name="kaf" unicode="&#x6a9;" horiz-adv-x="783" arabic-form="isolated" 
d="M570 110q28 0 38.5 11t10.5 27q0 15 -5.5 29.5t-23.5 31.5l-189 189v114l331 125l23 -102l-255 -94l148 -149q24 -25 40 -45.5t25 -39t12.5 -37t3.5 -38.5q0 -35 -11.5 -60t-31 -41t-46 -23.5t-57.5 -7.5h-377q-41 0 -70.5 12.5t-48 33.5t-27 49t-8.5 59v142h102v-116
q0 -33 14.5 -51.5t60.5 -18.5h341z" />
    <glyph glyph-name="gaf" unicode="&#x6af;" horiz-adv-x="783" arabic-form="isolated" 
d="M393 666l301 114l15 -72l-312 -120zM570 110q28 0 38.5 11t10.5 27q0 15 -5.5 29.5t-23.5 31.5l-189 189v114l331 125l23 -102l-255 -94l148 -149q24 -25 40 -45.5t25 -39t12.5 -37t3.5 -38.5q0 -35 -11.5 -60t-31 -41t-46 -23.5t-57.5 -7.5h-377q-41 0 -70.5 12.5
t-48 33.5t-27 49t-8.5 59v142h102v-116q0 -33 14.5 -51.5t60.5 -18.5h341z" />
    <glyph glyph-name="lam.tv.init" unicode="&#x6b5;" horiz-adv-x="256" 
d="M23 110q68 0 68 65v284h102v-291q0 -83 -42.5 -125.5t-118.5 -42.5h-32q-13 0 -17.5 13.5t-4.5 39.5q0 29 4.5 43t17.5 14h23zM205 725l50 -32l-90 -179h-54l-90 179l50 32l67 -138z" />
    <glyph glyph-name="lam.tvmedi" unicode="&#x6b5;" horiz-adv-x="282" 
d="M23 110q68 0 68 65v284h102v-284q0 -35 21.5 -50t51.5 -15h16q22 0 22 -53q0 -57 -22 -57h-20q-37 0 -69 12.5t-55 50.5q-23 -38 -52.5 -50.5t-62.5 -12.5h-23q-13 0 -17.5 13.5t-4.5 39.5q0 29 4.5 43t17.5 14h23zM205 725l50 -32l-90 -179h-54l-90 179l50 32l67 -138z
" />
    <glyph glyph-name="lam.tv.fina" unicode="&#x6b5;" horiz-adv-x="678" 
d="M667 0q-20 0 -40.5 6.5t-34.5 26.5v-13q0 -55 -17 -102.5t-49 -83t-77.5 -56t-102.5 -20.5h-63q-112 0 -174 69t-62 189v179h101v-175q0 -35 8 -63t25.5 -48t46 -31t69.5 -11h44q42 0 71.5 12.5t48 34t26.5 50t8 60.5v596h101v-446q0 -32 20.5 -48t50.5 -16h11
q22 0 22 -53q0 -57 -22 -57h-11zM378 621l50 -32l-90 -179h-54l-90 179l50 32l67 -138z" />
    <glyph glyph-name="he.thmz" unicode="&#x6c0;" horiz-adv-x="450" arabic-form="isolated" 
d="M174 566q-48 0 -68.5 21.5t-20.5 53.5q0 26 14 54.5t44 76.5h123l-5 -74h-90q-11 -15 -15 -23t-4 -16t6.5 -14t21.5 -6h189l-3 -73h-192zM47 154q0 29 7.5 55t22 52t36.5 52.5t51 57.5l-46 46l69 74q62 -61 103.5 -106t66.5 -81.5t35.5 -68.5t10.5 -66q0 -37 -14 -68
t-38 -53.5t-57.5 -35t-72.5 -12.5t-71 11t-55 31.5t-35.5 48.5t-12.5 63zM301 177q0 12 -3 23.5t-11 25.5t-23.5 31.5t-39.5 41.5q-25 -24 -40 -42.5t-23 -33t-10.5 -26t-2.5 -22.5q0 -26 19 -45.5t57 -19.5q37 0 57 20t20 47z" />
    <glyph glyph-name="he.thmz.goal.fina" unicode="&#x6c2;" horiz-adv-x="477" 
d="M219 141q39 0 59 16.5t20 44.5v95h-70q-42 0 -60 -24.5t-18 -63.5q0 -36 16.5 -52t52.5 -16zM397 179q0 -32 13.5 -50.5t43.5 -18.5h23q13 0 17.5 -13.5t4.5 -39.5q0 -29 -4.5 -43t-17.5 -14h-23q-51 0 -82.5 18t-47.5 61q-25 -28 -59.5 -35.5t-66.5 -7.5
q-71 0 -108.5 41.5t-37.5 123.5q0 37 10.5 72.5t31 63.5t52 45t73.5 17h79v67h99v-287zM370 631l-187 -94l-27 55l61 29q-23 13 -34 33.5t-11 43.5q0 42 27.5 68t69.5 26h47l-5 -63h-31q-22 0 -33 -11t-11 -27t11 -25.5t26 -9.5q11 0 29.5 8t42.5 21z" />
    <glyph glyph-name="vav.tv" unicode="&#x6c6;" horiz-adv-x="447" arabic-form="isolated" 
d="M144 -133q38 0 65.5 10.5t45.5 28.5t28 42.5t12 51.5h-68q-52 0 -85 11t-52 32.5t-26.5 52.5t-7.5 70t11 73.5t32.5 60.5t53.5 41.5t74 15.5q34 0 64.5 -11t53.5 -35t36.5 -62t13.5 -93v-140q0 -51 -17 -98t-48.5 -82.5t-77.5 -56.5t-103 -21h-101l-6 109h102zM154 173
q0 -35 15.5 -49t61.5 -14h66v47q0 52 -19.5 73t-54.5 21q-33 0 -51 -20t-18 -58zM290 629l50 -32l-90 -179h-54l-90 179l50 32l67 -138z" />
    <glyph glyph-name="vav.t2p.fina" unicode="&#x6ca;" horiz-adv-x="476" 
d="M144 -133q38 0 65.5 10.5t45.5 28.5t28 42.5t12 51.5h-68q-52 0 -85 11t-52 32.5t-26.5 52.5t-7.5 70t11 73.5t32.5 60.5t53.5 41.5t74 15.5q34 0 64.5 -11t53.5 -35t36.5 -62t13.5 -93v-46h81q22 0 22 -53q0 -57 -22 -57h-83q-2 -49 -20 -93t-49.5 -77t-75.5 -52.5
t-99 -19.5h-101l-6 109h102zM154 173q0 -35 15.5 -49t61.5 -14h66v47q0 52 -19.5 73t-54.5 21q-33 0 -51 -20t-18 -58zM350 455h-104v98h104v-98zM207 455h-104v98h104v-98z" />
    <glyph glyph-name="ye" unicode="&#x6cc;" horiz-adv-x="676" arabic-form="isolated" 
d="M356 -133q81 0 126.5 28t45.5 73q0 21 -11 33.5t-39 12.5h-172v191q0 39 12 71.5t34.5 56t54.5 36.5t72 13h115l5 -110h-122q-29 0 -49 -17.5t-20 -52.5v-79h88q39 0 64.5 -10t40.5 -28t21.5 -43t6.5 -56q0 -48 -19.5 -90t-54.5 -72.5t-82.5 -48t-102.5 -17.5h-87
q-112 0 -174 69t-62 189v179h101v-175q0 -35 8 -63t25.5 -48t46 -31t69.5 -11h59z" />
    <glyph glyph-name="ye.tv.init" unicode="&#x6ce;" horiz-adv-x="314" 
d="M92 110q67 0 67 65v118h102v-125q0 -83 -42 -125.5t-118 -42.5h-101q-13 0 -17.5 13.5t-4.5 39.5q0 29 4.5 43t17.5 14h92zM247 -210h-103v98h103v-98zM103 -210h-103v98h103v-98zM202 592l50 -32l-90 -179h-54l-90 179l50 32l67 -138z" />
    <glyph glyph-name="ye.tv.medi" unicode="&#x6ce;" horiz-adv-x="338" 
d="M70 110q67 0 67 65v118h103v-118q0 -35 21.5 -50t50.5 -15h26q23 0 23 -53q0 -57 -23 -57h-29q-38 0 -69 12.5t-54 50.5q-25 -38 -54 -50.5t-62 -12.5h-70q-13 0 -17.5 13.5t-4.5 39.5q0 29 4.5 43t17.5 14h70zM292 -210h-103v98h103v-98zM148 -210h-103v98h103v-98z
M253 592l50 -32l-90 -179h-54l-90 179l50 32l67 -138z" />
    <glyph glyph-name="ye.tv.fina" unicode="&#x6ce;" horiz-adv-x="689" 
d="M375 -133q44 0 73.5 6t47 17t25 26.5t7.5 33.5q0 20 -11 35t-37 15h-144l6 110h347q22 0 22 -53q0 -57 -22 -57h-86q13 -10 17.5 -26t4.5 -39q0 -27 -12 -58t-39.5 -57.5t-73 -44t-111.5 -17.5h-106q-112 0 -174 69t-62 189v179h101v-175q0 -35 8 -63t25.5 -48t46 -31
t69.5 -11h78zM364 414l50 -32l-90 -179h-54l-90 179l50 32l67 -138z" />
    <glyph glyph-name="ae.fina" unicode="&#x6d5;" horiz-adv-x="477" 
d="M219 141q39 0 59 16.5t20 44.5v95h-70q-42 0 -60 -24.5t-18 -63.5q0 -36 16.5 -52t52.5 -16zM397 179q0 -32 13.5 -50.5t43.5 -18.5h23q13 0 17.5 -13.5t4.5 -39.5q0 -29 -4.5 -43t-17.5 -14h-23q-51 0 -82.5 18t-47.5 61q-25 -28 -59.5 -35.5t-66.5 -7.5
q-71 0 -108.5 41.5t-37.5 123.5q0 37 10.5 72.5t31 63.5t52 45t73.5 17h79v67h99v-287z" />
    <glyph glyph-name="alef.vasla.fina" unicode="&#x671;" horiz-adv-x="247" arabic-form="final" 
d="M203 0q-28 0 -53.5 7.5t-44.5 25.5t-30 47.5t-11 73.5v311h102v-286q0 -32 14.5 -50.5t43.5 -18.5h23q22 0 22 -53q0 -57 -22 -57h-44zM41 593q37 72 70.5 103t70.5 31q33 0 57.5 -26t24.5 -66q0 -16 -5.5 -34t-18.5 -33t-34 -25t-51 -10h-132l-33 29v90l51 5v-64z
M159 592q23 0 37 10t14 30q0 15 -9 25.5t-26 10.5q-37 0 -82 -76h66z" />
    <glyph glyph-name="pe.fina" unicode="&#x67e;" horiz-adv-x="805" arabic-form="final" 
d="M542 110q67 0 67 65v118h102v-118q0 -35 22 -50t52 -15h20q13 0 17.5 -13.5t4.5 -39.5q0 -29 -4.5 -43t-17.5 -14h-24q-37 0 -69 12.5t-55 50.5q-23 -38 -52.5 -50.5t-62.5 -12.5h-337q-41 0 -70.5 12.5t-48 33.5t-27 49t-8.5 59v142h101v-116q0 -33 15 -51.5t61 -18.5
h314zM439 -350h-106v98h106v-98zM509 -210h-104v98h104v-98zM366 -210h-104v98h104v-98z" />
    <glyph glyph-name="pe.init" unicode="&#x67e;" horiz-adv-x="314" arabic-form="initial" 
d="M92 110q67 0 67 65v118h102v-125q0 -83 -42 -125.5t-118 -42.5h-101q-13 0 -17.5 13.5t-4.5 39.5q0 29 4.5 43t17.5 14h92zM178 -350h-106v98h106v-98zM248 -210h-104v98h104v-98zM105 -210h-104v98h104v-98z" />
    <glyph glyph-name="pe.medi" unicode="&#x67e;" horiz-adv-x="338" arabic-form="medial" 
d="M70 110q67 0 67 65v118h103v-118q0 -35 21.5 -50t50.5 -15h26q23 0 23 -53q0 -57 -23 -57h-29q-38 0 -69 12.5t-54 50.5q-25 -38 -54 -50.5t-62 -12.5h-70q-13 0 -17.5 13.5t-4.5 39.5q0 29 4.5 43t17.5 14h70zM208 -350h-106v98h106v-98zM278 -210h-104v98h104v-98z
M135 -210h-104v98h104v-98z" />
    <glyph glyph-name="veh.fina" unicode="&#x6a4;" horiz-adv-x="872" arabic-form="final" 
d="M622 302q-35 0 -55.5 -22t-20.5 -55q0 -32 23 -57.5t57 -42.5q29 17 49.5 42t20.5 57q0 35 -21 56.5t-53 21.5zM628 413q42 0 73 -15t51.5 -39t31 -53.5t10.5 -58.5q0 -44 -16 -76.5t-45 -60.5h139q13 0 17.5 -13.5t4.5 -39.5q0 -29 -4.5 -43t-17.5 -14h-100q-46 0 -82 4
t-56 15q-15 -7 -35 -11t-42 -5.5t-42 -2t-35 -0.5h-275q-41 0 -70.5 12.5t-48 33.5t-27 49t-8.5 59v142h101v-116q0 -33 15 -51.5t61 -18.5h285q-34 32 -49 63.5t-15 68.5q0 33 12.5 64t36 54.5t56.5 38t74 14.5zM676 631h-106v97h106v-97zM746 491h-104v98h104v-98z
M603 491h-104v98h104v-98z" />
    <glyph glyph-name="veh.init" unicode="&#x6a4;" horiz-adv-x="470" arabic-form="initial" 
d="M90 110q16 0 28 -0.5t22.5 -1.5t20.5 -3t22 -5q-35 15 -55.5 31.5t-31.5 35.5t-14.5 41.5t-3.5 49.5t10.5 56t31.5 52t52.5 38t72.5 15q39 0 70.5 -10t54.5 -33t35.5 -60.5t12.5 -92.5v-51q0 -81 -46.5 -126.5t-146.5 -45.5h-225q-13 0 -17.5 13.5t-4.5 39.5q0 29 4.5 43
t17.5 14h90zM241 309q-35 0 -52 -22.5t-17 -47.5q0 -14 3.5 -26.5t16.5 -25.5t39 -28t72 -34q8 10 12.5 27.5t4.5 34.5v26q0 42 -17 69t-62 27zM298 642h-106v97h106v-97zM368 502h-104v98h104v-98zM225 502h-104v98h104v-98z" />
    <glyph glyph-name="veh.medi" unicode="&#x6a4;" horiz-adv-x="502" arabic-form="medial" 
d="M143 110q-35 32 -50 63.5t-15 68.5q0 33 12.5 64t36 54.5t57 38t74.5 14.5t72 -15t51.5 -39t31 -53.5t10.5 -58.5q0 -44 -15.5 -76.5t-44.5 -60.5h139q22 0 22 -53q0 -57 -22 -57h-101q-45 0 -81.5 4t-56.5 15q-14 -7 -34.5 -11t-42 -5.5t-42 -2t-34.5 -0.5h-110
q-13 0 -17.5 13.5t-4.5 39.5q0 29 4.5 43t17.5 14h143zM251 302q-33 0 -54 -22t-21 -55q0 -32 23.5 -57.5t56.5 -42.5q29 17 49.5 42t20.5 57q0 35 -20.5 56.5t-54.5 21.5zM309 631h-106v97h106v-97zM379 491h-104v98h104v-98zM236 491h-104v98h104v-98z" />
    <glyph glyph-name="che.fina" unicode="&#x686;" horiz-adv-x="566" arabic-form="final" 
d="M377 224q-7 13 -13 23t-15.5 16t-23 9t-35.5 3h-207l6 110h217q28 0 55.5 -7.5t51.5 -29.5t44.5 -62.5t34.5 -107.5l-54 -31q15 -23 33.5 -30t44.5 -7h50q13 0 17.5 -13.5t4.5 -39.5q0 -29 -4.5 -43t-17.5 -14h-56q-33 0 -56.5 8t-40 22t-27.5 33.5t-19 42.5l-73 -43
q-45 -27 -74.5 -52t-46.5 -49t-23.5 -48t-6.5 -48q0 -65 38 -103.5t124 -38.5h183l-5 -109h-179q-70 0 -119.5 19t-81.5 51.5t-47 76.5t-15 94q0 45 10.5 84t34.5 74.5t63.5 69t96.5 66.5zM372.076 -223.456h-82.1523v75.9521h82.1523v-75.9521zM426.328 -114.952h-80.6025
v75.9521h80.6025v-75.9521zM315.5 -114.952h-80.6035v75.9521h80.6035v-75.9521z" />
    <glyph glyph-name="che.init" unicode="&#x686;" horiz-adv-x="536" arabic-form="initial" 
d="M287 56q-27 -16 -53 -26.5t-55 -17t-63.5 -9.5t-79.5 -3h-36q-13 0 -17.5 13.5t-4.5 39.5q0 29 4.5 43t17.5 14h40q37 0 67 1.5t54.5 5.5t46.5 11.5t44 20.5l127 73q-7 13 -13.5 23t-16 16.5t-23.5 10t-36 3.5h-212l6 110h222q28 0 55.5 -8t52 -30.5t45 -63t34.5 -106.5z
M326 -350h-106v98h106v-98zM396 -210h-104v98h104v-98zM253 -210h-104v98h104v-98z" />
    <glyph glyph-name="che.medi" unicode="&#x686;" horiz-adv-x="571" arabic-form="medial" 
d="M439 145q14 -21 32 -28t44 -7h56q13 0 17.5 -13.5t4.5 -39.5q0 -29 -4.5 -43t-17.5 -14h-61q-33 0 -56.5 8t-40 21.5t-27 32.5t-18.5 42l-81 -48q-27 -16 -53 -26.5t-55 -17t-63.5 -9.5t-79.5 -3h-36q-13 0 -17.5 13.5t-4.5 39.5q0 29 4.5 43t17.5 14h40q37 0 67 1.5
t54.5 5.5t46.5 11.5t44 20.5l127 73q-7 13 -13.5 23t-16 16.5t-23.5 10t-36 3.5h-212l6 110h222q28 0 55.5 -8t52 -30.5t45 -63t34.5 -106.5zM326 -350h-106v98h106v-98zM396 -210h-104v98h104v-98zM253 -210h-104v98h104v-98z" />
    <glyph glyph-name="je.fina" unicode="&#x698;" horiz-adv-x="270" arabic-form="final" 
d="M185 16q0 -54 -18 -101t-49.5 -82t-75 -55t-94.5 -20h-63l-5 109h42q45 0 76.5 12.5t51.5 33.5t29 48t9 55v277h102v-119q0 -32 19.5 -48t49.5 -16h11q22 0 22 -53q0 -57 -22 -57h-11q-20 0 -40 6.5t-34 26.5v-17zM180 550h-106v97h106v-97zM250 410h-104v98h104v-98z
M107 410h-104v98h104v-98z" />
    <glyph glyph-name="kaf.fina" unicode="&#x6a9;" horiz-adv-x="927" arabic-form="final" 
d="M401 398v114l331 125l23 -102l-255 -94l148 -149q67 -68 108 -104.5t68.5 -54t50 -20.5t52.5 -3q13 0 17.5 -13.5t4.5 -39.5q0 -29 -4.5 -43t-17.5 -14q-31 0 -55 3t-47.5 12.5t-49.5 29t-59 52.5q-7 -52 -44.5 -74.5t-88.5 -22.5h-377q-41 0 -70.5 12.5t-48 33.5t-27 49
t-8.5 59v142h102v-116q0 -33 14.5 -51.5t60.5 -18.5h341q28 0 38.5 11t10.5 27q0 15 -5.5 29t-23.5 32z" />
    <glyph glyph-name="kaf.init" unicode="&#x6a9;" horiz-adv-x="459" arabic-form="initial" 
d="M248 110q27 0 37.5 11t10.5 27q0 15 -5.5 29.5t-23.5 31.5l-189 189v114l331 125l23 -102l-255 -94l147 -149q25 -25 41 -45.5t25 -39t12.5 -37t3.5 -38.5q0 -35 -11.5 -60t-31 -41t-46 -23.5t-57.5 -7.5h-260q-13 0 -17.5 13.5t-4.5 39.5q0 29 4.5 43t17.5 14h248z" />
    <glyph glyph-name="kaf.medi" unicode="&#x6a9;" horiz-adv-x="603" arabic-form="medial" 
d="M248 110q27 0 37.5 11t10.5 27q0 15 -5.5 29.5t-23.5 31.5l-189 189v114l331 125l23 -102l-255 -94l147 -149q45 -45 77.5 -76t57 -51t43 -31.5t34.5 -16.5t31.5 -6t35.5 -1q13 0 17.5 -13.5t4.5 -39.5q0 -29 -4.5 -43t-17.5 -14q-30 0 -54.5 3t-47.5 12.5t-49 29
t-59 52.5q-7 -52 -44.5 -74.5t-88.5 -22.5h-260q-13 0 -17.5 13.5t-4.5 39.5q0 29 4.5 43t17.5 14h248z" />
    <glyph glyph-name="gaf.fina" unicode="&#x6af;" horiz-adv-x="927" arabic-form="final" 
d="M393 666l301 114l15 -72l-312 -120zM401 398v114l331 125l23 -102l-255 -94l148 -149q67 -68 108 -104.5t68.5 -54t50 -20.5t52.5 -3q13 0 17.5 -13.5t4.5 -39.5q0 -29 -4.5 -43t-17.5 -14q-31 0 -55 3t-47.5 12.5t-49.5 29t-59 52.5q-7 -52 -44.5 -74.5t-88.5 -22.5
h-377q-41 0 -70.5 12.5t-48 33.5t-27 49t-8.5 59v142h102v-116q0 -33 14.5 -51.5t60.5 -18.5h341q28 0 38.5 11t10.5 27q0 15 -5.5 29t-23.5 32z" />
    <glyph glyph-name="gaf.init" unicode="&#x6af;" horiz-adv-x="459" arabic-form="initial" 
d="M73 666l301 114l16 -72l-312 -120zM248 110q27 0 37.5 11t10.5 27q0 15 -5.5 29.5t-23.5 31.5l-189 189v114l331 125l23 -102l-255 -94l147 -149q25 -25 41 -45.5t25 -39t12.5 -37t3.5 -38.5q0 -35 -11.5 -60t-31 -41t-46 -23.5t-57.5 -7.5h-260q-13 0 -17.5 13.5
t-4.5 39.5q0 29 4.5 43t17.5 14h248z" />
    <glyph glyph-name="gaf.medi" unicode="&#x6af;" horiz-adv-x="603" arabic-form="medial" 
d="M73 666l301 114l16 -72l-312 -120zM248 110q27 0 37.5 11t10.5 27q0 15 -5.5 29.5t-23.5 31.5l-189 189v114l331 125l23 -102l-255 -94l147 -149q45 -45 77.5 -76t57 -51t43 -31.5t34.5 -16.5t31.5 -6t35.5 -1q13 0 17.5 -13.5t4.5 -39.5q0 -29 -4.5 -43t-17.5 -14
q-30 0 -54.5 3t-47.5 12.5t-49 29t-59 52.5q-7 -52 -44.5 -74.5t-88.5 -22.5h-260q-13 0 -17.5 13.5t-4.5 39.5q0 29 4.5 43t17.5 14h248z" />
    <glyph glyph-name="he.thmz.fina" unicode="&#x6c0;" horiz-adv-x="477" arabic-form="final" 
d="M198 498q-48 0 -68.5 21t-20.5 52q0 26 14 55t43 76h124l-5 -72h-90q-11 -16 -15 -24.5t-4 -15.5q0 -8 6 -14t22 -6h188l-3 -72h-191zM219 141q39 0 59 16.5t20 44.5v95h-70q-42 0 -60 -24.5t-18 -63.5q0 -36 16.5 -52t52.5 -16zM397 179q0 -32 13.5 -50.5t43.5 -18.5h23
q13 0 17.5 -13.5t4.5 -39.5q0 -29 -4.5 -43t-17.5 -14h-23q-51 0 -82.5 18t-47.5 61q-25 -28 -59.5 -35.5t-66.5 -7.5q-71 0 -108.5 41.5t-37.5 123.5q0 37 10.5 72.5t31 63.5t52 45t73.5 17h178v-220z" />
    <glyph glyph-name="he.dochashmi.fina" unicode="&#x6be;" horiz-adv-x="635" arabic-form="final" 
d="M415 209q0 30 -15.5 50t-47.5 20q-71 0 -71 -96v-245q0 -35 13.5 -50.5t38.5 -20.5l85 107q40 49 66.5 76t49 40.5t45.5 16.5t56 3q22 0 22 -53q0 -57 -22 -57q-25 0 -44.5 -2t-39 -13t-42.5 -34.5t-55 -66.5l-96 -126q-36 0 -67.5 10.5t-54 31.5t-35.5 53.5t-13 76.5
v248q0 36 7.5 73t26.5 66.5t51.5 48.5t82.5 19q37 0 65.5 -12.5t48 -33.5t29.5 -50t10 -62q0 -70 -40.5 -123.5t-105 -95.5t-145 -75.5t-161.5 -63.5l-32 97q78 26 149 55t124.5 59.5t85 63t31.5 65.5z" />
    <glyph glyph-name="he.dochashmi.init" unicode="&#x6be;" horiz-adv-x="701" arabic-form="initial" 
d="M247 300q-34 0 -54.5 -22t-20.5 -55t23.5 -59.5t55.5 -43.5q30 17 50 43t20 58q0 35 -20.5 57t-53.5 22zM0 0q-13 0 -17.5 13.5t-4.5 39.5q0 29 4.5 43t17.5 14h143q-65 57 -65 129q0 33 12 63t35 53.5t55.5 37t74.5 13.5q41 0 71.5 -14t50 -37t29 -52t9.5 -59
q0 -41 -15.5 -73.5t-44.5 -60.5h140q48 0 48 37q0 8 -4 18t-15 24l-166 202l75 71l169 -208q29 -35 40.5 -65.5t11.5 -59.5q0 -27 -9.5 -50.5t-28.5 -41t-47.5 -27.5t-65.5 -10h-110q-46 0 -81.5 4t-55.5 15q-15 -7 -35.5 -11t-42 -5.5t-42 -2t-34.5 -0.5h-102z" />
    <glyph glyph-name="he.dochashmi.medi" unicode="&#x6be;" horiz-adv-x="527" arabic-form="medial" 
d="M81 110v68q0 36 7.5 73t26.5 66.5t51.5 48.5t82.5 19q37 0 65.5 -12.5t47.5 -33.5t29 -50t10 -62q0 -48 -18.5 -87t-50 -68t-72.5 -46.5t-86 -21.5v-66q0 -35 13.5 -50.5t37.5 -20.5l85 107q40 49 66.5 76t49 40.5t45.5 16.5t56 3q13 0 17.5 -13.5t4.5 -39.5
q0 -29 -4.5 -43t-17.5 -14q-25 0 -44 -2t-38.5 -13t-42.5 -34.5t-56 -66.5l-96 -126q-36 0 -67 10.5t-53.5 31.5t-35.5 53.5t-13 76.5v70h-81q-13 0 -17.5 13.5t-4.5 39.5q0 29 4.5 43t17.5 14h81zM174 106q36 3 61 13t41.5 24t24 31t7.5 35q0 30 -16 50t-47 20
q-34 0 -52.5 -24t-18.5 -72v-77z" />
    <glyph glyph-name="vav.tv.fina" unicode="&#x6c6;" horiz-adv-x="476" arabic-form="final" 
d="M144 -133q38 0 65.5 10.5t45.5 28.5t28 42.5t12 51.5h-68q-52 0 -85 11t-52 32.5t-26.5 52.5t-7.5 70t11 73.5t32.5 60.5t53.5 41.5t74 15.5q34 0 64.5 -11t53.5 -35t36.5 -62t13.5 -93v-46h81q22 0 22 -53q0 -57 -22 -57h-83q-2 -49 -20 -93t-49.5 -77t-75.5 -52.5
t-99 -19.5h-101l-6 109h102zM154 173q0 -35 15.5 -49t61.5 -14h66v47q0 52 -19.5 73t-54.5 21q-33 0 -51 -20t-18 -58zM290 629l50 -32l-90 -179h-54l-90 179l50 32l67 -138z" />
    <glyph glyph-name="alef.maksura.init" unicode="&#x649;" horiz-adv-x="314" arabic-form="initial" 
d="M92 110q67 0 67 65v118h102v-125q0 -83 -42 -125.5t-118 -42.5h-101q-13 0 -17.5 13.5t-4.5 39.5q0 29 4.5 43t17.5 14h92z" />
    <glyph glyph-name="alef.maksura.medi" unicode="&#x649;" horiz-adv-x="338" arabic-form="medial" 
d="M70 110q67 0 67 65v118h103v-118q0 -35 21.5 -50t50.5 -15h26q23 0 23 -53q0 -57 -23 -57h-29q-38 0 -69 12.5t-54 50.5q-25 -38 -54 -50.5t-62 -12.5h-70q-13 0 -17.5 13.5t-4.5 39.5q0 29 4.5 43t17.5 14h70z" />
    <glyph glyph-name="ye.fina" unicode="&#x6cc;" horiz-adv-x="689" arabic-form="final" 
d="M375 -133q44 0 73.5 6t47 17t25 26.5t7.5 33.5q0 20 -11 35t-37 15h-144l6 110h347q22 0 22 -53q0 -57 -22 -57h-86q13 -10 17.5 -26t4.5 -39q0 -27 -12 -58t-39.5 -57.5t-73 -44t-111.5 -17.5h-106q-112 0 -174 69t-62 189v179h101v-175q0 -35 8 -63t25.5 -48t46 -31
t69.5 -11h78z" />
    <glyph glyph-name="ye.init" unicode="&#x6cc;" horiz-adv-x="314" arabic-form="initial" 
d="M92 110q67 0 67 65v118h102v-125q0 -83 -42 -125.5t-118 -42.5h-101q-13 0 -17.5 13.5t-4.5 39.5q0 29 4.5 43t17.5 14h92zM247 -210h-103v98h103v-98zM103 -210h-103v98h103v-98z" />
    <glyph glyph-name="ye.medi" unicode="&#x6cc;" horiz-adv-x="338" arabic-form="medial" 
d="M70 110q67 0 67 65v118h103v-118q0 -35 21.5 -50t50.5 -15h26q23 0 23 -53q0 -57 -23 -57h-29q-38 0 -69 12.5t-54 50.5q-25 -38 -54 -50.5t-62 -12.5h-70q-13 0 -17.5 13.5t-4.5 39.5q0 29 4.5 43t17.5 14h70zM292 -210h-103v98h103v-98zM148 -210h-103v98h103v-98z" />
    <glyph glyph-name=".shdd.on" unicode="&#xfc5e;" arabic-form="isolated" 
d="M9 319q-15 11 -24.5 29.5t-9.5 39.5q0 41 27 67.5t65 26.5q42 0 68 -27t26 -70q0 -31 -18.5 -57t-62.5 -46l-168 -68l-26 51v62q0 22 -18 22h-34v59h56q20 0 31.5 -11t11.5 -37v-70zM31 384q0 -27 35 -46q17 8 27.5 20t10.5 27q0 14 -9 25.5t-28 11.5t-27.5 -12t-8.5 -26
zM0 19q-7 -7 -15.5 -13t-19.5 -6h-35q-13 0 -28.5 4t-29.5 16.5t-23.5 36t-9.5 62.5v61h63v-71q0 -29 12.5 -37.5t32.5 -8.5h21v117h63v-117h22q19 0 32 8.5t13 37.5v71h63v-61q0 -39 -10 -62.5t-25 -36t-31.5 -16.5t-29.5 -4h-30q-11 0 -19.5 6t-15.5 13z" />
    <glyph glyph-name=".shdd.en" unicode="&#xfc5f;" arabic-form="isolated" 
d="M0 346q-7 -7 -15.5 -13t-19.5 -6h-35q-13 0 -28.5 4t-29.5 16.5t-23.5 36t-9.5 62.5v61h63v-71q0 -29 12.5 -37.5t32.5 -8.5h21v117h63v-117h22q19 0 32 8.5t13 37.5v71h63v-61q0 -39 -10 -62.5t-25 -36t-31.5 -16.5t-29.5 -4h-30q-11 0 -19.5 6t-15.5 13zM107 156
l23 -58l-237 -98l-23 58zM107 277l23 -58l-237 -98l-23 58z" />
    <glyph glyph-name=".shdd.a" unicode="&#xfc60;" arabic-form="isolated" 
d="M107 375l23 -58l-237 -98l-23 58zM0 19q-7 -7 -15.5 -13t-19.5 -6h-35q-13 0 -28.5 4t-29.5 16.5t-23.5 36t-9.5 62.5v61h63v-71q0 -29 12.5 -37.5t32.5 -8.5h21v117h63v-117h22q19 0 32 8.5t13 37.5v71h63v-61q0 -39 -10 -62.5t-25 -36t-31.5 -16.5t-29.5 -4h-30
q-11 0 -19.5 6t-15.5 13z" />
    <glyph glyph-name=".shdd.o" unicode="&#xfc61;" arabic-form="isolated" 
d="M-139 281l122 47q-16 11 -25.5 29.5t-9.5 39.5q0 41 27.5 67.5t65.5 26.5q42 0 67.5 -27t25.5 -70q0 -31 -18.5 -57t-61.5 -46l-168 -68zM5 393q0 -27 34 -46q38 16 38 47q0 14 -8.5 25.5t-27.5 11.5q-20 0 -28 -12t-8 -26zM0 19q-7 -7 -15.5 -13t-19.5 -6h-35
q-13 0 -28.5 4t-29.5 16.5t-23.5 36t-9.5 62.5v61h63v-71q0 -29 12.5 -37.5t32.5 -8.5h21v117h63v-117h22q19 0 32 8.5t13 37.5v71h63v-61q0 -39 -10 -62.5t-25 -36t-31.5 -16.5t-29.5 -4h-30q-11 0 -19.5 6t-15.5 13z" />
    <glyph glyph-name=".shdd.e" unicode="&#xfc62;" arabic-form="isolated" 
d="M0 216q-7 -7 -15.5 -13t-19.5 -6h-35q-13 0 -28.5 4t-29.5 16.5t-23.5 36t-9.5 62.5v61h63v-71q0 -29 12.5 -37.5t32.5 -8.5h21v117h63v-117h22q19 0 32 8.5t13 37.5v71h63v-61q0 -39 -10 -62.5t-25 -36t-31.5 -16.5t-29.5 -4h-30q-11 0 -19.5 6t-15.5 13zM107 156
l23 -58l-237 -98l-23 58z" />
    <glyph glyph-name=".shdd.aa" unicode="&#xfc63;" arabic-form="isolated" 
d="M1 19q-7 -7 -15.5 -13t-19.5 -6h-35q-13 0 -28.5 4t-29.5 16.5t-23.5 36t-9.5 62.5v61h63v-71q0 -29 12.5 -37.5t32.5 -8.5h21v117h63v-117h22q19 0 32 8.5t13 37.5v71h63v-61q0 -39 -10 -62.5t-25 -36t-31.5 -16.5t-29.5 -4h-30q-11 0 -19.5 6t-15.5 13zM-32 419h63
v-174h-63v174z" />
    <glyph glyph-name="rial" unicode="&#xfdfc;" horiz-adv-x="1411" arabic-form="isolated" 
d="M1083 -133h16q42 0 72 12.5t48.5 33.5t27.5 48t9 55v277h102v-277q0 -54 -18.5 -101t-51 -82t-77 -55t-95.5 -20h-25zM989 110q67 0 67 65v118h102v-125q0 -83 -42 -125.5t-118 -42.5h-101q-13 0 -17.5 13.5t-4.5 39.5q0 29 4.5 43t17.5 14h92zM954 -237h-103v98h103v-98
zM810 -237h-103v98h103v-98zM852 0q-28 0 -53.5 7.5t-44.5 25.5t-30 47.5t-11 73.5v466h102v-441q0 -32 14.5 -50.5t43.5 -18.5h23q22 0 22 -53q0 -57 -22 -57h-44zM597 25q0 -57 -17.5 -105.5t-50 -84.5t-79 -56.5t-103.5 -20.5h-63q-112 0 -174 69t-62 189v179h101v-175
q0 -35 8 -63t25.5 -48t46 -31t69.5 -11h44q42 0 71.5 12.5t48 34t26.5 50t8 60.5v596h101v-595z" />
    <glyph glyph-name="alef.aa.fina" unicode="&#x622;" horiz-adv-x="247" arabic-form="final" 
d="M203 0q-28 0 -53.5 7.5t-44.5 25.5t-30 47.5t-11 73.5v316h102v-291q0 -32 14.5 -50.5t43.5 -18.5h23q22 0 22 -53q0 -57 -22 -57h-44zM59 573q-20 0 -31 -4t-19 -24l-21 -46l-64 31l31 68q9 20 17.5 33t19.5 21t26 11.5t37 3.5h202l-4 -94h-194z" />
    <glyph glyph-name="alef.thmz.fina" unicode="&#x623;" horiz-adv-x="247" arabic-form="final" 
d="M203 0q-28 0 -53.5 7.5t-44.5 25.5t-30 47.5t-11 73.5v305h102v-280q0 -32 14.5 -50.5t43.5 -18.5h23q22 0 22 -53q0 -57 -22 -57h-44zM216 591l-187 -94l-27 55l61 29q-23 13 -34 33.5t-11 43.5q0 42 27.5 68t69.5 26h47l-5 -63h-31q-22 0 -33 -11t-11 -27t11 -25.5
t26 -9.5q11 0 29.5 8t42.5 21z" />
    <glyph glyph-name="vav.thmz.fina" unicode="&#x624;" horiz-adv-x="476" arabic-form="final" 
d="M144 -133q38 0 65.5 10.5t45.5 28.5t28 42.5t12 51.5h-68q-52 0 -85 11t-52 32.5t-26.5 52.5t-7.5 70t11 73.5t32.5 60.5t53.5 41.5t74 15.5q34 0 64.5 -11t53.5 -35t36.5 -62t13.5 -93v-46h81q22 0 22 -53q0 -57 -22 -57h-83q-2 -49 -20 -93t-49.5 -77t-75.5 -52.5
t-99 -19.5h-101l-6 109h102zM154 173q0 -35 15.5 -49t61.5 -14h66v47q0 52 -19.5 73t-54.5 21q-33 0 -51 -20t-18 -58zM323 506l-187 -94l-27 55l61 29q-23 13 -34 33.5t-11 43.5q0 42 27.5 68t69.5 26h47l-5 -63h-31q-22 0 -33 -11t-11 -27t11 -25.5t26 -9.5q11 0 29.5 8
t42.5 21z" />
    <glyph glyph-name="alef.bhmz.fina" unicode="&#x625;" horiz-adv-x="247" arabic-form="final" 
d="M203 0q-28 0 -53.5 7.5t-44.5 25.5t-30 47.5t-11 73.5v466h102v-441q0 -32 14.5 -50.5t43.5 -18.5h23q22 0 22 -53q0 -57 -22 -57h-44zM257 -262l-187 -94l-27 55l61 29q-23 13 -34 33.5t-11 43.5q0 42 27.5 68t69.5 26h47l-5 -63h-31q-22 0 -33 -11t-11 -27t11 -25.5
t26 -9.5q11 0 29.5 8t42.5 21z" />
    <glyph glyph-name="ye.thmz.fina" unicode="&#x626;" horiz-adv-x="689" arabic-form="final" 
d="M375 -133q44 0 73.5 6t47 17t25 26.5t7.5 33.5q0 20 -11 35t-37 15h-144l6 110h347q22 0 22 -53q0 -57 -22 -57h-86q13 -10 17.5 -26t4.5 -39q0 -27 -12 -58t-39.5 -57.5t-73 -44t-111.5 -17.5h-106q-112 0 -174 69t-62 189v179h101v-175q0 -35 8 -63t25.5 -48t46 -31
t69.5 -11h78zM445 275l-187 -94l-27 55l61 29q-23 13 -34 33.5t-11 43.5q0 42 27.5 68t69.5 26h47l-5 -63h-31q-22 0 -33 -11t-11 -27t11 -25.5t26 -9.5q11 0 29.5 8t42.5 21z" />
    <glyph glyph-name="ye.thmz.init" unicode="&#x626;" horiz-adv-x="314" arabic-form="initial" 
d="M92 110q67 0 67 65v118h102v-125q0 -83 -42 -125.5t-118 -42.5h-101q-13 0 -17.5 13.5t-4.5 39.5q0 29 4.5 43t17.5 14h92zM266 437l-187 -94l-27 55l61 29q-23 13 -34 33.5t-11 43.5q0 42 27.5 68t69.5 26h47l-5 -63h-31q-22 0 -33 -11t-11 -27t11 -25.5t26 -9.5
q11 0 29.5 8t42.5 21z" />
    <glyph glyph-name="ye.thmz.medi" unicode="&#x626;" horiz-adv-x="338" arabic-form="medial" 
d="M70 110q67 0 67 65v118h103v-118q0 -35 21.5 -50t50.5 -15h26q23 0 23 -53q0 -57 -23 -57h-29q-38 0 -69 12.5t-54 50.5q-25 -38 -54 -50.5t-62 -12.5h-70q-13 0 -17.5 13.5t-4.5 39.5q0 29 4.5 43t17.5 14h70zM268 437l-187 -94l-27 55l61 29q-23 13 -34 33.5t-11 43.5
q0 42 27.5 68t69.5 26h47l-5 -63h-31q-22 0 -33 -11t-11 -27t11 -25.5t26 -9.5q11 0 29.5 8t42.5 21z" />
    <glyph glyph-name="alef.fina" unicode="&#x627;" horiz-adv-x="247" arabic-form="final" 
d="M203 0q-28 0 -53.5 7.5t-44.5 25.5t-30 47.5t-11 73.5v466h102v-441q0 -32 14.5 -50.5t43.5 -18.5h23q22 0 22 -53q0 -57 -22 -57h-44z" />
    <glyph glyph-name="be.fina" unicode="&#x628;" horiz-adv-x="805" arabic-form="final" 
d="M542 110q67 0 67 65v118h102v-118q0 -35 22 -50t52 -15h20q13 0 17.5 -13.5t4.5 -39.5q0 -29 -4.5 -43t-17.5 -14h-24q-37 0 -69 12.5t-55 50.5q-23 -38 -52.5 -50.5t-62.5 -12.5h-337q-41 0 -70.5 12.5t-48 33.5t-27 49t-8.5 59v142h101v-116q0 -33 15 -51.5t61 -18.5
h314zM439 -214h-113v102h113v-102z" />
    <glyph glyph-name="be.init" unicode="&#x628;" horiz-adv-x="314" arabic-form="initial" 
d="M92 110q67 0 67 65v118h102v-125q0 -83 -42 -125.5t-118 -42.5h-101q-13 0 -17.5 13.5t-4.5 39.5q0 29 4.5 43t17.5 14h92zM144 -214h-113v102h113v-102z" />
    <glyph glyph-name="be.medi" unicode="&#x628;" horiz-adv-x="338" arabic-form="medial" 
d="M70 110q67 0 67 65v118h103v-118q0 -35 21.5 -50t50.5 -15h26q23 0 23 -53q0 -57 -23 -57h-29q-38 0 -69 12.5t-54 50.5q-25 -38 -54 -50.5t-62 -12.5h-70q-13 0 -17.5 13.5t-4.5 39.5q0 29 4.5 43t17.5 14h70zM219 -214h-113v102h113v-102z" />
    <glyph glyph-name="te.marbuta.fina" unicode="&#x629;" horiz-adv-x="477" arabic-form="final" 
d="M219 141q39 0 59 16.5t20 44.5v95h-70q-42 0 -60 -24.5t-18 -63.5q0 -36 16.5 -52t52.5 -16zM397 179q0 -32 13.5 -50.5t43.5 -18.5h23q13 0 17.5 -13.5t4.5 -39.5q0 -29 -4.5 -43t-17.5 -14h-23q-51 0 -82.5 18t-47.5 61q-25 -28 -59.5 -35.5t-66.5 -7.5
q-71 0 -108.5 41.5t-37.5 123.5q0 37 10.5 72.5t31 63.5t52 45t73.5 17h79v67h99v-287zM386 543h-104v98h104v-98zM243 543h-104v98h104v-98z" />
    <glyph glyph-name="te.fina" unicode="&#x62a;" horiz-adv-x="805" arabic-form="final" 
d="M542 110q67 0 67 65v118h102v-118q0 -35 22 -50t52 -15h20q13 0 17.5 -13.5t4.5 -39.5q0 -29 -4.5 -43t-17.5 -14h-24q-37 0 -69 12.5t-55 50.5q-23 -38 -52.5 -50.5t-62.5 -12.5h-337q-41 0 -70.5 12.5t-48 33.5t-27 49t-8.5 59v142h101v-116q0 -33 15 -51.5t61 -18.5
h314zM504 374h-104v98h104v-98zM361 374h-104v98h104v-98z" />
    <glyph glyph-name="te.init" unicode="&#x62a;" horiz-adv-x="314" arabic-form="initial" 
d="M92 110q67 0 67 65v118h102v-125q0 -83 -42 -125.5t-118 -42.5h-101q-13 0 -17.5 13.5t-4.5 39.5q0 29 4.5 43t17.5 14h92zM264 410h-104v98h104v-98zM121 410h-104v98h104v-98z" />
    <glyph glyph-name="te.medi" unicode="&#x62a;" horiz-adv-x="338" arabic-form="medial" 
d="M70 110q67 0 67 65v118h103v-118q0 -35 21.5 -50t50.5 -15h26q23 0 23 -53q0 -57 -23 -57h-29q-38 0 -69 12.5t-54 50.5q-25 -38 -54 -50.5t-62 -12.5h-70q-13 0 -17.5 13.5t-4.5 39.5q0 29 4.5 43t17.5 14h70zM299 410h-104v98h104v-98zM156 410h-104v98h104v-98z" />
    <glyph glyph-name="the.fina" unicode="&#x62b;" horiz-adv-x="805" arabic-form="final" 
d="M542 110q67 0 67 65v118h102v-118q0 -35 22 -50t52 -15h20q13 0 17.5 -13.5t4.5 -39.5q0 -29 -4.5 -43t-17.5 -14h-24q-37 0 -69 12.5t-55 50.5q-23 -38 -52.5 -50.5t-62.5 -12.5h-337q-41 0 -70.5 12.5t-48 33.5t-27 49t-8.5 59v142h101v-116q0 -33 15 -51.5t61 -18.5
h314zM434 514h-106v97h106v-97zM504 374h-104v98h104v-98zM361 374h-104v98h104v-98z" />
    <glyph glyph-name="the.init" unicode="&#x62b;" horiz-adv-x="314" arabic-form="initial" 
d="M92 110q67 0 67 65v118h102v-125q0 -83 -42 -125.5t-118 -42.5h-101q-13 0 -17.5 13.5t-4.5 39.5q0 29 4.5 43t17.5 14h92zM194 550h-106v97h106v-97zM264 410h-104v98h104v-98zM121 410h-104v98h104v-98z" />
    <glyph glyph-name="the.medi" unicode="&#x62b;" horiz-adv-x="338" arabic-form="medial" 
d="M70 110q67 0 67 65v118h103v-118q0 -35 21.5 -50t50.5 -15h26q23 0 23 -53q0 -57 -23 -57h-29q-38 0 -69 12.5t-54 50.5q-25 -38 -54 -50.5t-62 -12.5h-70q-13 0 -17.5 13.5t-4.5 39.5q0 29 4.5 43t17.5 14h70zM229 550h-106v97h106v-97zM299 410h-104v98h104v-98z
M156 410h-104v98h104v-98z" />
    <glyph glyph-name="jim.fina" unicode="&#x62c;" horiz-adv-x="566" arabic-form="final" 
d="M377 224q-7 13 -13 23t-15.5 16t-23 9t-35.5 3h-207l6 110h217q28 0 55.5 -7.5t51.5 -29.5t44.5 -62.5t34.5 -107.5l-54 -31q15 -23 33.5 -30t44.5 -7h50q13 0 17.5 -13.5t4.5 -39.5q0 -29 -4.5 -43t-17.5 -14h-56q-33 0 -56.5 8t-40 22t-27.5 33.5t-19 42.5l-73 -43
q-45 -27 -74.5 -52t-46.5 -49t-23.5 -48t-6.5 -48q0 -65 38 -103.5t124 -38.5h183l-5 -109h-179q-70 0 -119.5 19t-81.5 51.5t-47 76.5t-15 94q0 45 10.5 84t34.5 74.5t63.5 69t96.5 66.5zM390 -167h-113v102h113v-102z" />
    <glyph glyph-name="jim.init" unicode="&#x62c;" horiz-adv-x="536" arabic-form="initial" 
d="M287 56q-27 -16 -53 -26.5t-55 -17t-63.5 -9.5t-79.5 -3h-36q-13 0 -17.5 13.5t-4.5 39.5q0 29 4.5 43t17.5 14h40q37 0 67 1.5t54.5 5.5t46.5 11.5t44 20.5l127 73q-7 13 -13.5 23t-16 16.5t-23.5 10t-36 3.5h-212l6 110h222q28 0 55.5 -8t52 -30.5t45 -63t34.5 -106.5z
M302 -214h-113v102h113v-102z" />
    <glyph glyph-name="jim.medi" unicode="&#x62c;" horiz-adv-x="571" arabic-form="medial" 
d="M439 145q14 -21 32 -28t44 -7h56q13 0 17.5 -13.5t4.5 -39.5q0 -29 -4.5 -43t-17.5 -14h-61q-33 0 -56.5 8t-40 21.5t-27 32.5t-18.5 42l-81 -48q-27 -16 -53 -26.5t-55 -17t-63.5 -9.5t-79.5 -3h-36q-13 0 -17.5 13.5t-4.5 39.5q0 29 4.5 43t17.5 14h40q37 0 67 1.5
t54.5 5.5t46.5 11.5t44 20.5l127 73q-7 13 -13.5 23t-16 16.5t-23.5 10t-36 3.5h-212l6 110h222q28 0 55.5 -8t52 -30.5t45 -63t34.5 -106.5zM302 -214h-113v102h113v-102z" />
    <glyph glyph-name="him.fina" unicode="&#x62d;" horiz-adv-x="566" arabic-form="final" 
d="M377 224q-7 13 -13 23t-15.5 16t-23 9t-35.5 3h-207l6 110h217q28 0 55.5 -7.5t51.5 -29.5t44.5 -62.5t34.5 -107.5l-54 -31q15 -23 33.5 -30t44.5 -7h50q13 0 17.5 -13.5t4.5 -39.5q0 -29 -4.5 -43t-17.5 -14h-56q-33 0 -56.5 8t-40 22t-27.5 33.5t-19 42.5l-73 -43
q-45 -27 -74.5 -52t-46.5 -49t-23.5 -48t-6.5 -48q0 -65 38 -103.5t124 -38.5h183l-5 -109h-179q-70 0 -119.5 19t-81.5 51.5t-47 76.5t-15 94q0 45 10.5 84t34.5 74.5t63.5 69t96.5 66.5z" />
    <glyph glyph-name="him.init" unicode="&#x62d;" horiz-adv-x="536" arabic-form="initial" 
d="M287 56q-27 -16 -53 -26.5t-55 -17t-63.5 -9.5t-79.5 -3h-36q-13 0 -17.5 13.5t-4.5 39.5q0 29 4.5 43t17.5 14h40q37 0 67 1.5t54.5 5.5t46.5 11.5t44 20.5l127 73q-7 13 -13.5 23t-16 16.5t-23.5 10t-36 3.5h-212l6 110h222q28 0 55.5 -8t52 -30.5t45 -63t34.5 -106.5z
" />
    <glyph glyph-name="him.medi" unicode="&#x62d;" horiz-adv-x="571" arabic-form="medial" 
d="M439 145q14 -21 32 -28t44 -7h56q13 0 17.5 -13.5t4.5 -39.5q0 -29 -4.5 -43t-17.5 -14h-61q-33 0 -56.5 8t-40 21.5t-27 32.5t-18.5 42l-81 -48q-27 -16 -53 -26.5t-55 -17t-63.5 -9.5t-79.5 -3h-36q-13 0 -17.5 13.5t-4.5 39.5q0 29 4.5 43t17.5 14h40q37 0 67 1.5
t54.5 5.5t46.5 11.5t44 20.5l127 73q-7 13 -13.5 23t-16 16.5t-23.5 10t-36 3.5h-212l6 110h222q28 0 55.5 -8t52 -30.5t45 -63t34.5 -106.5z" />
    <glyph glyph-name="khe.fina" unicode="&#x62e;" horiz-adv-x="566" arabic-form="final" 
d="M377 224q-7 13 -13 23t-15.5 16t-23 9t-35.5 3h-207l6 110h217q28 0 55.5 -7.5t51.5 -29.5t44.5 -62.5t34.5 -107.5l-54 -31q15 -23 33.5 -30t44.5 -7h50q13 0 17.5 -13.5t4.5 -39.5q0 -29 -4.5 -43t-17.5 -14h-56q-33 0 -56.5 8t-40 22t-27.5 33.5t-19 42.5l-73 -43
q-45 -27 -74.5 -52t-46.5 -49t-23.5 -48t-6.5 -48q0 -65 38 -103.5t124 -38.5h183l-5 -109h-179q-70 0 -119.5 19t-81.5 51.5t-47 76.5t-15 94q0 45 10.5 84t34.5 74.5t63.5 69t96.5 66.5zM311 490h-113v102h113v-102z" />
    <glyph glyph-name="khe.init" unicode="&#x62e;" horiz-adv-x="536" arabic-form="initial" 
d="M287 56q-27 -16 -53 -26.5t-55 -17t-63.5 -9.5t-79.5 -3h-36q-13 0 -17.5 13.5t-4.5 39.5q0 29 4.5 43t17.5 14h40q37 0 67 1.5t54.5 5.5t46.5 11.5t44 20.5l127 73q-7 13 -13.5 23t-16 16.5t-23.5 10t-36 3.5h-212l6 110h222q28 0 55.5 -8t52 -30.5t45 -63t34.5 -106.5z
M305 490h-113v102h113v-102z" />
    <glyph glyph-name="khe.medi" unicode="&#x62e;" horiz-adv-x="571" arabic-form="medial" 
d="M439 145q14 -21 32 -28t44 -7h56q13 0 17.5 -13.5t4.5 -39.5q0 -29 -4.5 -43t-17.5 -14h-61q-33 0 -56.5 8t-40 21.5t-27 32.5t-18.5 42l-81 -48q-27 -16 -53 -26.5t-55 -17t-63.5 -9.5t-79.5 -3h-36q-13 0 -17.5 13.5t-4.5 39.5q0 29 4.5 43t17.5 14h40q37 0 67 1.5
t54.5 5.5t46.5 11.5t44 20.5l127 73q-7 13 -13.5 23t-16 16.5t-23.5 10t-36 3.5h-212l6 110h222q28 0 55.5 -8t52 -30.5t45 -63t34.5 -106.5zM305 490h-113v102h113v-102z" />
    <glyph glyph-name="dal.fina" unicode="&#x62f;" horiz-adv-x="509" arabic-form="final" 
d="M244 110q35 0 48 14t13 28q0 8 -3 20.5t-12 41t-26.5 78.5t-47.5 131l97 41l103 -288q12 -35 28.5 -50.5t51.5 -15.5h13q22 0 22 -53q0 -57 -22 -57h-13q-33 0 -63.5 12t-55.5 51q-21 -36 -52.5 -49.5t-68.5 -13.5h-215l-5 110h208z" />
    <glyph glyph-name="zal.fina" unicode="&#x630;" horiz-adv-x="509" arabic-form="final" 
d="M244 110q35 0 48 14t13 28q0 8 -3 20.5t-12 41t-26.5 78.5t-47.5 131l97 41l103 -288q12 -35 28.5 -50.5t51.5 -15.5h13q22 0 22 -53q0 -57 -22 -57h-13q-33 0 -63.5 12t-55.5 51q-21 -36 -52.5 -49.5t-68.5 -13.5h-215l-5 110h208zM329 540h-113v102h113v-102z" />
    <glyph glyph-name="re.fina" unicode="&#x631;" horiz-adv-x="270" arabic-form="final" 
d="M185 16q0 -54 -18 -101t-49.5 -82t-75 -55t-94.5 -20h-63l-5 109h42q45 0 76.5 12.5t51.5 33.5t29 48t9 55v277h102v-119q0 -32 19.5 -48t49.5 -16h11q22 0 22 -53q0 -57 -22 -57h-11q-20 0 -40 6.5t-34 26.5v-17z" />
    <glyph glyph-name="ze.fina" unicode="&#x632;" horiz-adv-x="270" arabic-form="final" 
d="M185 16q0 -54 -18 -101t-49.5 -82t-75 -55t-94.5 -20h-63l-5 109h42q45 0 76.5 12.5t51.5 33.5t29 48t9 55v277h102v-119q0 -32 19.5 -48t49.5 -16h11q22 0 22 -53q0 -57 -22 -57h-11q-20 0 -40 6.5t-34 26.5v-17zM191 410h-113v102h113v-102z" />
    <glyph glyph-name="sin.fina" unicode="&#x633;" horiz-adv-x="1164" arabic-form="final" 
d="M596 174q0 -32 20.5 -48t51.5 -16q75 0 75 65v118h101v-118q0 -35 18.5 -50t43.5 -15q63 0 63 65v118h102v-118q0 -35 21.5 -50t48.5 -15h23q13 0 17.5 -13.5t4.5 -39.5q0 -29 -4.5 -43t-17.5 -14h-23q-38 0 -69.5 12.5t-53.5 50.5q-24 -38 -54.5 -50.5t-57.5 -12.5
q-34 0 -63 12.5t-52 50.5q-24 -38 -55.5 -50.5t-63.5 -12.5q-28 0 -47.5 8.5t-32.5 22.5v-15q0 -51 -17 -98t-48.5 -82.5t-77.5 -56.5t-103 -21h-63q-112 0 -174 69t-62 189v179h101v-175q0 -35 8 -63t25.5 -48t46 -31t69.5 -11h44q42 0 71.5 12.5t48 34t26.5 50t8 60.5v269
h101v-119z" />
    <glyph glyph-name="sin.init" unicode="&#x633;" horiz-adv-x="741" arabic-form="initial" 
d="M44 110q69 0 69 65v118h101v-118q0 -35 21.5 -50t49.5 -15q75 0 75 65v118h102v-118q0 -35 18.5 -50t43.5 -15q30 0 46.5 16.5t16.5 48.5v118h102v-125q0 -83 -42.5 -125.5t-118.5 -42.5q-34 0 -65 12.5t-54 50.5q-24 -38 -56.5 -50.5t-67.5 -12.5q-38 0 -69.5 12.5
t-54.5 50.5q-24 -38 -54 -50.5t-64 -12.5h-43q-13 0 -17.5 13.5t-4.5 39.5q0 29 4.5 43t17.5 14h44z" />
    <glyph glyph-name="sin.medi" unicode="&#x633;" horiz-adv-x="782" arabic-form="medial" 
d="M44 110q69 0 69 65v118h101v-118q0 -35 21.5 -50t49.5 -15q75 0 75 65v118h102v-118q0 -35 18.5 -50t43.5 -15q63 0 63 65v118h102v-118q0 -35 21.5 -50t48.5 -15h23q13 0 17.5 -13.5t4.5 -39.5q0 -29 -4.5 -43t-17.5 -14h-23q-38 0 -69.5 12.5t-54.5 50.5
q-24 -38 -54.5 -50.5t-56.5 -12.5q-35 0 -63.5 12.5t-51.5 50.5q-24 -38 -56.5 -50.5t-67.5 -12.5q-38 0 -69.5 12.5t-54.5 50.5q-24 -38 -54 -50.5t-64 -12.5h-43q-13 0 -17.5 13.5t-4.5 39.5q0 29 4.5 43t17.5 14h44z" />
    <glyph glyph-name="shin.fina" unicode="&#x634;" horiz-adv-x="1164" arabic-form="final" 
d="M596 174q0 -32 20.5 -48t51.5 -16q75 0 75 65v118h101v-118q0 -35 18.5 -50t43.5 -15q63 0 63 65v118h102v-118q0 -35 21.5 -50t48.5 -15h23q13 0 17.5 -13.5t4.5 -39.5q0 -29 -4.5 -43t-17.5 -14h-23q-38 0 -69.5 12.5t-53.5 50.5q-24 -38 -54.5 -50.5t-57.5 -12.5
q-34 0 -63 12.5t-52 50.5q-24 -38 -55.5 -50.5t-63.5 -12.5q-28 0 -47.5 8.5t-32.5 22.5v-15q0 -51 -17 -98t-48.5 -82.5t-77.5 -56.5t-103 -21h-63q-112 0 -174 69t-62 189v179h101v-175q0 -35 8 -63t25.5 -48t46 -31t69.5 -11h44q42 0 71.5 12.5t48 34t26.5 50t8 60.5v269
h101v-119zM845 550h-106v97h106v-97zM915 410h-104v98h104v-98zM772 410h-104v98h104v-98z" />
    <glyph glyph-name="shin.init" unicode="&#x634;" horiz-adv-x="741" arabic-form="initial" 
d="M44 110q69 0 69 65v118h101v-118q0 -35 21.5 -50t49.5 -15q75 0 75 65v118h102v-118q0 -35 18.5 -50t43.5 -15q30 0 46.5 16.5t16.5 48.5v118h102v-125q0 -83 -42.5 -125.5t-118.5 -42.5q-34 0 -65 12.5t-54 50.5q-24 -38 -56.5 -50.5t-67.5 -12.5q-38 0 -69.5 12.5
t-54.5 50.5q-24 -38 -54 -50.5t-64 -12.5h-43q-13 0 -17.5 13.5t-4.5 39.5q0 29 4.5 43t17.5 14h44zM463 550h-106v97h106v-97zM533 410h-104v98h104v-98zM390 410h-104v98h104v-98z" />
    <glyph glyph-name="shin.medi" unicode="&#x634;" horiz-adv-x="782" arabic-form="medial" 
d="M44 110q69 0 69 65v118h101v-118q0 -35 21.5 -50t49.5 -15q75 0 75 65v118h102v-118q0 -35 18.5 -50t43.5 -15q63 0 63 65v118h102v-118q0 -35 21.5 -50t48.5 -15h23q13 0 17.5 -13.5t4.5 -39.5q0 -29 -4.5 -43t-17.5 -14h-23q-38 0 -69.5 12.5t-54.5 50.5
q-24 -38 -54.5 -50.5t-56.5 -12.5q-35 0 -63.5 12.5t-51.5 50.5q-24 -38 -56.5 -50.5t-67.5 -12.5q-38 0 -69.5 12.5t-54.5 50.5q-24 -38 -54 -50.5t-64 -12.5h-43q-13 0 -17.5 13.5t-4.5 39.5q0 29 4.5 43t17.5 14h44zM463 550h-106v97h106v-97zM533 410h-104v98h104v-98z
M390 410h-104v98h104v-98z" />
    <glyph glyph-name="sad.fina" unicode="&#x635;" horiz-adv-x="1196" arabic-form="final" 
d="M662 111q79 140 146.5 203.5t135.5 63.5q40 0 72 -15t54.5 -40.5t34.5 -61t12 -75.5q0 -15 -2.5 -30t-8.5 -29q18 -12 37.5 -14.5t40.5 -2.5h12q22 0 22 -53q0 -57 -22 -57h-12q-27 0 -58.5 5.5t-64.5 38.5q-22 -20 -52.5 -32t-70.5 -12h-252q-29 0 -54 8.5t-40 27.5v-20
q0 -51 -17 -98t-48.5 -82.5t-77.5 -56.5t-103 -21h-63q-112 0 -174 69t-62 189v179h101v-175q0 -35 8 -63t25.5 -48t46 -31t69.5 -11h44q42 0 71.5 12.5t48 34t26.5 50t8 60.5v269h101v-99q0 -35 14 -58t52 -25zM1016 186q0 31 -21 56.5t-60 25.5q-36 0 -76.5 -36.5
t-94.5 -121.5h178q32 0 53 19.5t21 56.5z" />
    <glyph glyph-name="sad.init" unicode="&#x635;" horiz-adv-x="774" arabic-form="initial" 
d="M272 111q79 140 146 203.5t135 63.5q40 0 72.5 -15t55 -40.5t34.5 -61t12 -75.5q0 -35 -10.5 -68t-32.5 -59.5t-56 -42.5t-81 -16h-270q-38 0 -70 12.5t-55 50.5q-23 -38 -53.5 -50.5t-64.5 -12.5h-34q-13 0 -17.5 13.5t-4.5 39.5q0 29 4.5 43t17.5 14h35q70 0 70 65v118
h101v-118q0 -30 18.5 -46t47.5 -18zM625 186q0 31 -20.5 56.5t-60.5 25.5q-36 0 -76.5 -36.5t-93.5 -121.5h177q32 0 53 19.5t21 56.5z" />
    <glyph glyph-name="sad.medi" unicode="&#x635;" horiz-adv-x="806" arabic-form="medial" 
d="M272 111q79 140 146 203.5t135 63.5q40 0 72.5 -15t55 -40.5t34.5 -61t12 -75.5q0 -31 -11 -59q18 -12 37.5 -14.5t40.5 -2.5h12q22 0 22 -53q0 -57 -22 -57h-12q-27 0 -58.5 5.5t-64.5 38.5q-23 -20 -53.5 -32t-70.5 -12h-270q-38 0 -70 12.5t-55 50.5
q-23 -38 -53.5 -50.5t-64.5 -12.5h-34q-13 0 -17.5 13.5t-4.5 39.5q0 29 4.5 43t17.5 14h35q70 0 70 65v118h101v-118q0 -30 18.5 -46t47.5 -18zM625 186q0 31 -20.5 56.5t-60.5 25.5q-36 0 -76.5 -36.5t-93.5 -121.5h177q32 0 53 19.5t21 56.5z" />
    <glyph glyph-name="zad.fina" unicode="&#x636;" horiz-adv-x="1196" arabic-form="final" 
d="M662 111q79 140 146.5 203.5t135.5 63.5q40 0 72 -15t54.5 -40.5t34.5 -61t12 -75.5q0 -15 -2.5 -30t-8.5 -29q18 -12 37.5 -14.5t40.5 -2.5h12q22 0 22 -53q0 -57 -22 -57h-12q-27 0 -58.5 5.5t-64.5 38.5q-22 -20 -52.5 -32t-70.5 -12h-252q-29 0 -54 8.5t-40 27.5v-20
q0 -51 -17 -98t-48.5 -82.5t-77.5 -56.5t-103 -21h-63q-112 0 -174 69t-62 189v179h101v-175q0 -35 8 -63t25.5 -48t46 -31t69.5 -11h44q42 0 71.5 12.5t48 34t26.5 50t8 60.5v269h101v-99q0 -35 14 -58t52 -25zM1016 186q0 31 -21 56.5t-60 25.5q-36 0 -76.5 -36.5
t-94.5 -121.5h178q32 0 53 19.5t21 56.5zM969 483h-113v102h113v-102z" />
    <glyph glyph-name="zad.init" unicode="&#x636;" horiz-adv-x="774" arabic-form="initial" 
d="M272 111q79 140 146 203.5t135 63.5q40 0 72.5 -15t55 -40.5t34.5 -61t12 -75.5q0 -35 -10.5 -68t-32.5 -59.5t-56 -42.5t-81 -16h-270q-38 0 -70 12.5t-55 50.5q-23 -38 -53.5 -50.5t-64.5 -12.5h-34q-13 0 -17.5 13.5t-4.5 39.5q0 29 4.5 43t17.5 14h35q70 0 70 65v118
h101v-118q0 -30 18.5 -46t47.5 -18zM625 186q0 31 -20.5 56.5t-60.5 25.5q-36 0 -76.5 -36.5t-93.5 -121.5h177q32 0 53 19.5t21 56.5zM578 483h-113v102h113v-102z" />
    <glyph glyph-name="zad.medi" unicode="&#x636;" horiz-adv-x="806" arabic-form="medial" 
d="M272 111q79 140 146 203.5t135 63.5q40 0 72.5 -15t55 -40.5t34.5 -61t12 -75.5q0 -31 -11 -59q18 -12 37.5 -14.5t40.5 -2.5h12q22 0 22 -53q0 -57 -22 -57h-12q-27 0 -58.5 5.5t-64.5 38.5q-23 -20 -53.5 -32t-70.5 -12h-270q-38 0 -70 12.5t-55 50.5
q-23 -38 -53.5 -50.5t-64.5 -12.5h-34q-13 0 -17.5 13.5t-4.5 39.5q0 29 4.5 43t17.5 14h35q70 0 70 65v118h101v-118q0 -30 18.5 -46t47.5 -18zM625 186q0 31 -20.5 56.5t-60.5 25.5q-36 0 -76.5 -36.5t-93.5 -121.5h177q32 0 53 19.5t21 56.5zM578 483h-113v102h113v-102z
" />
    <glyph glyph-name="ta.fina" unicode="&#x637;" horiz-adv-x="674" arabic-form="final" 
d="M132 620h102v-276q0 -29 -0.5 -54t-3.5 -51q51 73 96.5 106t94.5 33q40 0 72.5 -15t55 -40.5t34.5 -61t12 -75.5q0 -31 -11 -59q17 -12 36.5 -14.5t40.5 -2.5h13q22 0 22 -53q0 -57 -22 -57h-13q-13 0 -27.5 0.5t-30 5t-32 13t-33.5 25.5q-22 -20 -52.5 -32t-70.5 -12
h-368l-6 110h91v510zM493 186q0 31 -20.5 56.5t-59.5 25.5q-18 0 -36 -8t-39 -27t-46.5 -49t-58.5 -74h187q32 0 52.5 19.5t20.5 56.5z" />
    <glyph glyph-name="ta.init" unicode="&#x637;" horiz-adv-x="595" arabic-form="initial" 
d="M85 620h102v-276q0 -27 -0.5 -53.5t-3.5 -51.5q46 66 89 99t88 38q16 2 31 0t29 -5q60 -14 94 -65t34 -120q0 -35 -10.5 -68t-32.5 -59.5t-56 -42.5t-81 -16h-368q-13 0 -17.5 13.5t-4.5 39.5q0 29 4.5 43t17.5 14h85v510zM447 186q0 31 -21 56.5t-60 25.5
q-18 0 -36.5 -8t-39.5 -27t-46 -49t-57 -74h186q32 0 53 19.5t21 56.5z" />
    <glyph glyph-name="ta.medi" unicode="&#x637;" horiz-adv-x="627" arabic-form="medial" 
d="M85 620h102v-276q0 -29 -0.5 -54t-3.5 -51q48 68 91.5 101t89.5 37q14 1 26 -0.5t23 -3.5q31 -6 56.5 -23t42.5 -41.5t26.5 -56t9.5 -66.5q0 -15 -2.5 -30t-8.5 -29q18 -12 37.5 -14.5t39.5 -2.5h13q22 0 22 -53q0 -57 -22 -57h-13q-13 0 -27.5 0.5t-30 5t-32 13
t-32.5 25.5q-23 -20 -53.5 -32t-70.5 -12h-368q-13 0 -17.5 13.5t-4.5 39.5q0 29 4.5 43t17.5 14h85v510zM447 186q0 31 -21 56.5t-60 25.5q-18 0 -36.5 -8t-39.5 -27t-46 -49t-57 -74h186q32 0 53 19.5t21 56.5z" />
    <glyph glyph-name="za.fina" unicode="&#x638;" horiz-adv-x="674" arabic-form="final" 
d="M132 620h102v-276q0 -29 -0.5 -54t-3.5 -51q51 73 96.5 106t94.5 33q40 0 72.5 -15t55 -40.5t34.5 -61t12 -75.5q0 -31 -11 -59q17 -12 36.5 -14.5t40.5 -2.5h13q22 0 22 -53q0 -57 -22 -57h-13q-13 0 -27.5 0.5t-30 5t-32 13t-33.5 25.5q-22 -20 -52.5 -32t-70.5 -12
h-368l-6 110h91v510zM493 186q0 31 -20.5 56.5t-59.5 25.5q-18 0 -36 -8t-39 -27t-46.5 -49t-58.5 -74h187q32 0 52.5 19.5t20.5 56.5zM488 489h-113v102h113v-102z" />
    <glyph glyph-name="za.init" unicode="&#x638;" horiz-adv-x="595" arabic-form="initial" 
d="M85 620h102v-276q0 -27 -0.5 -53.5t-3.5 -51.5q46 66 89 99t88 38q16 2 31 0t29 -5q60 -14 94 -65t34 -120q0 -35 -10.5 -68t-32.5 -59.5t-56 -42.5t-81 -16h-368q-13 0 -17.5 13.5t-4.5 39.5q0 29 4.5 43t17.5 14h85v510zM447 186q0 31 -21 56.5t-60 25.5
q-18 0 -36.5 -8t-39.5 -27t-46 -49t-57 -74h186q32 0 53 19.5t21 56.5zM440 489h-113v102h113v-102z" />
    <glyph glyph-name="za.medi" unicode="&#x638;" horiz-adv-x="627" arabic-form="medial" 
d="M85 620h102v-276q0 -29 -0.5 -54t-3.5 -51q48 68 91.5 101t89.5 37q14 1 26 -0.5t23 -3.5q31 -6 56.5 -23t42.5 -41.5t26.5 -56t9.5 -66.5q0 -15 -2.5 -30t-8.5 -29q18 -12 37.5 -14.5t39.5 -2.5h13q22 0 22 -53q0 -57 -22 -57h-13q-13 0 -27.5 0.5t-30 5t-32 13
t-32.5 25.5q-23 -20 -53.5 -32t-70.5 -12h-368q-13 0 -17.5 13.5t-4.5 39.5q0 29 4.5 43t17.5 14h85v510zM447 186q0 31 -21 56.5t-60 25.5q-18 0 -36.5 -8t-39.5 -27t-46 -49t-57 -74h186q32 0 53 19.5t21 56.5zM440 489h-113v102h113v-102z" />
    <glyph glyph-name="ein.fina" unicode="&#x639;" horiz-adv-x="559" arabic-form="final" 
d="M275 53q-39 -27 -63.5 -51t-38.5 -47.5t-19.5 -46.5t-5.5 -47q0 -30 8.5 -55t28 -43.5t51 -28.5t76.5 -10h171l-6 -109h-166q-71 0 -121.5 18t-82 50t-46 75.5t-14.5 93.5q0 34 6.5 66t23 64t44 63.5t69.5 64.5l-139 180l51 97h261q57 0 89 -29t32 -74q0 -14 -3 -29
t-13.5 -34.5t-31.5 -44t-56 -56.5q25 -8 51 -9t60 -1h68q13 0 17.5 -13.5t4.5 -39.5q0 -29 -4.5 -43t-17.5 -14h-88q-31 0 -57.5 1.5t-50.5 6.5t-45.5 16t-42.5 29zM374 257q0 27 -42 27h-159l108 -137q54 44 73.5 69t19.5 41z" />
    <glyph glyph-name="ein.init" unicode="&#x639;" horiz-adv-x="467" arabic-form="initial" 
d="M103 110q-14 21 -19.5 44t-5.5 41q0 39 13 73t37 59t57.5 39.5t73.5 14.5q37 0 70 -11.5t71 -36.5l-44 -88q-30 14 -52 20t-45 6q-36 0 -57.5 -23.5t-21.5 -53.5q0 -38 25.5 -61t61.5 -23h154l-5 -110h-416q-13 0 -17.5 13.5t-4.5 39.5q0 29 4.5 43t17.5 14h103z" />
    <glyph glyph-name="ein.medi" unicode="&#x639;" horiz-adv-x="581" arabic-form="medial" 
d="M58 110q32 0 69 2t72 13l-126 165l51 97h261q48 0 78.5 -20.5t38.5 -55.5q2 -8 3 -15.5t1 -15.5q-1 -13 -5 -28t-15 -34t-31 -43t-53 -55q25 -8 51.5 -9t58.5 -1h69q13 0 17.5 -13.5t4.5 -39.5q0 -29 -4.5 -43t-17.5 -14h-89q-30 0 -56.5 1.5t-50.5 6.5t-46 16t-43 29
q-28 -17 -55 -27.5t-55 -16t-57.5 -7.5t-62.5 -2h-66q-13 0 -17.5 13.5t-4.5 39.5q0 29 4.5 43t17.5 14h58zM396 257q0 27 -41 27h-160l109 -137q53 43 72.5 68.5t19.5 41.5z" />
    <glyph glyph-name="qein.fina" unicode="&#x63a;" horiz-adv-x="559" arabic-form="final" 
d="M275 53q-39 -27 -63.5 -51t-38.5 -47.5t-19.5 -46.5t-5.5 -47q0 -30 8.5 -55t28 -43.5t51 -28.5t76.5 -10h171l-6 -109h-166q-71 0 -121.5 18t-82 50t-46 75.5t-14.5 93.5q0 34 6.5 66t23 64t44 63.5t69.5 64.5l-139 180l51 97h261q57 0 89 -29t32 -74q0 -14 -3 -29
t-13.5 -34.5t-31.5 -44t-56 -56.5q25 -8 51 -9t60 -1h68q13 0 17.5 -13.5t4.5 -39.5q0 -29 -4.5 -43t-17.5 -14h-88q-31 0 -57.5 1.5t-50.5 6.5t-45.5 16t-42.5 29zM374 257q0 27 -42 27h-159l108 -137q54 44 73.5 69t19.5 41zM337 502h-113v102h113v-102z" />
    <glyph glyph-name="qein.init" unicode="&#x63a;" horiz-adv-x="467" arabic-form="initial" 
d="M103 110q-14 21 -19.5 44t-5.5 41q0 39 13 73t37 59t57.5 39.5t73.5 14.5q37 0 70 -11.5t71 -36.5l-44 -88q-30 14 -52 20t-45 6q-36 0 -57.5 -23.5t-21.5 -53.5q0 -38 25.5 -61t61.5 -23h154l-5 -110h-416q-13 0 -17.5 13.5t-4.5 39.5q0 29 4.5 43t17.5 14h103zM293 487
h-113v102h113v-102z" />
    <glyph glyph-name="qein.medi" unicode="&#x63a;" horiz-adv-x="581" arabic-form="medial" 
d="M58 110q32 0 69 2t72 13l-126 165l51 97h261q48 0 78.5 -20.5t38.5 -55.5q2 -8 3 -15.5t1 -15.5q-1 -13 -5 -28t-15 -34t-31 -43t-53 -55q25 -8 51.5 -9t58.5 -1h69q13 0 17.5 -13.5t4.5 -39.5q0 -29 -4.5 -43t-17.5 -14h-89q-30 0 -56.5 1.5t-50.5 6.5t-46 16t-43 29
q-28 -17 -55 -27.5t-55 -16t-57.5 -7.5t-62.5 -2h-66q-13 0 -17.5 13.5t-4.5 39.5q0 29 4.5 43t17.5 14h58zM396 257q0 27 -41 27h-160l109 -137q53 43 72.5 68.5t19.5 41.5zM357 502h-113v102h113v-102z" />
    <glyph glyph-name="fe.fina" unicode="&#x641;" horiz-adv-x="873" arabic-form="final" 
d="M623 302q-34 0 -55 -22t-21 -55q0 -32 23.5 -57.5t56.5 -42.5q30 17 50 42t20 57q0 35 -20.5 56.5t-53.5 21.5zM629 413q42 0 73 -15t51.5 -39t31 -53.5t10.5 -58.5q0 -44 -16 -76.5t-45 -60.5h139q13 0 17.5 -13.5t4.5 -39.5q0 -29 -4.5 -43t-17.5 -14h-100q-46 0 -82 4
t-56 15q-15 -7 -35 -11t-42 -5.5t-42 -2t-35 -0.5h-275q-41 0 -70.5 12.5t-48 33.5t-27 49t-8.5 59v142h102v-116q0 -33 14.5 -51.5t60.5 -18.5h286q-35 32 -50 63.5t-15 68.5q0 33 12.5 64t36 54.5t56.5 38t74 14.5zM680 491h-113v102h113v-102z" />
    <glyph glyph-name="fe.init" unicode="&#x641;" horiz-adv-x="470" arabic-form="initial" 
d="M90 110q16 0 28 -0.5t22.5 -1.5t20.5 -3t22 -5q-35 15 -55.5 31.5t-31.5 35.5t-14.5 41.5t-3.5 49.5t10.5 56t31.5 52t52.5 38t72.5 15q39 0 70.5 -10t54.5 -33t35.5 -60.5t12.5 -92.5v-51q0 -81 -46.5 -126.5t-146.5 -45.5h-225q-13 0 -17.5 13.5t-4.5 39.5q0 29 4.5 43
t17.5 14h90zM241 309q-35 0 -52 -22.5t-17 -47.5q0 -14 3.5 -26.5t16.5 -25.5t39 -28t72 -34q8 10 12.5 27.5t4.5 34.5v26q0 42 -17 69t-62 27zM301 502h-113v102h113v-102z" />
    <glyph glyph-name="fe.medi" unicode="&#x641;" horiz-adv-x="502" arabic-form="medial" 
d="M143 110q-35 32 -50 63.5t-15 68.5q0 33 12.5 64t36 54.5t57 38t74.5 14.5t72 -15t51.5 -39t31 -53.5t10.5 -58.5q0 -44 -15.5 -76.5t-44.5 -60.5h139q22 0 22 -53q0 -57 -22 -57h-101q-45 0 -81.5 4t-56.5 15q-14 -7 -34.5 -11t-42 -5.5t-42 -2t-34.5 -0.5h-110
q-13 0 -17.5 13.5t-4.5 39.5q0 29 4.5 43t17.5 14h143zM251 302q-33 0 -54 -22t-21 -55q0 -32 23.5 -57.5t56.5 -42.5q29 17 49.5 42t20.5 57q0 35 -20.5 56.5t-54.5 21.5zM312 491h-113v102h113v-102z" />
    <glyph glyph-name="qaf.fina" unicode="&#x642;" horiz-adv-x="732" arabic-form="final" 
d="M649 0q-3 -49 -21 -93t-49.5 -77t-75.5 -52.5t-98 -19.5h-122q-112 0 -174 69t-62 189v179h101v-175q0 -35 8 -63t25.5 -48t46 -31t69.5 -11h102q37 0 64.5 10.5t46 28.5t28.5 42.5t13 51.5h-68q-52 0 -85 11t-52 32.5t-26.5 52.5t-7.5 70t11 73.5t32.5 60.5t53.5 41.5
t74 15.5q34 0 64 -11t53 -35t36.5 -62t13.5 -93v-46h82q22 0 22 -53q0 -57 -22 -57h-83zM410 173q0 -35 15.5 -49t61.5 -14h66v47q0 52 -19 73t-55 21q-33 0 -51 -20t-18 -58zM606 455h-104v98h104v-98zM463 455h-104v98h104v-98z" />
    <glyph glyph-name="qaf.init" unicode="&#x642;" horiz-adv-x="470" arabic-form="initial" 
d="M90 110q16 0 28 -0.5t22.5 -1.5t20.5 -3t22 -5q-35 15 -55.5 31.5t-31.5 35.5t-14.5 41.5t-3.5 49.5t10.5 56t31.5 52t52.5 38t72.5 15q39 0 70.5 -10t54.5 -33t35.5 -60.5t12.5 -92.5v-51q0 -81 -46.5 -126.5t-146.5 -45.5h-225q-13 0 -17.5 13.5t-4.5 39.5q0 29 4.5 43
t17.5 14h90zM241 309q-35 0 -52 -22.5t-17 -47.5q0 -14 3.5 -26.5t16.5 -25.5t39 -28t72 -34q8 10 12.5 27.5t4.5 34.5v26q0 42 -17 69t-62 27zM363 506h-104v98h104v-98zM220 506h-104v98h104v-98z" />
    <glyph glyph-name="qaf.medi" unicode="&#x642;" horiz-adv-x="502" arabic-form="medial" 
d="M143 110q-35 32 -50 63.5t-15 68.5q0 33 12.5 64t36 54.5t57 38t74.5 14.5t72 -15t51.5 -39t31 -53.5t10.5 -58.5q0 -44 -15.5 -76.5t-44.5 -60.5h139q22 0 22 -53q0 -57 -22 -57h-101q-45 0 -81.5 4t-56.5 15q-14 -7 -34.5 -11t-42 -5.5t-42 -2t-34.5 -0.5h-110
q-13 0 -17.5 13.5t-4.5 39.5q0 29 4.5 43t17.5 14h143zM251 302q-33 0 -54 -22t-21 -55q0 -32 23.5 -57.5t56.5 -42.5q29 17 49.5 42t20.5 57q0 35 -20.5 56.5t-54.5 21.5zM376 494h-104v98h104v-98zM233 494h-104v98h104v-98z" />
    <glyph glyph-name="kaf.arab.fina" unicode="&#x643;" horiz-adv-x="785" arabic-form="final" 
d="M400 209v74q0 11 -3.5 16.5t-17.5 5.5h-128v130q0 55 28 84.5t84 29.5h59l6 -76h-60q-45 0 -45 -46v-44h90q34 0 47 -22t13 -48v-104h-73zM206 0q-41 0 -70.5 12.5t-48 33.5t-27 49t-8.5 59v142h102v-116q0 -33 14.5 -51.5t60.5 -18.5h298q67 0 67 65v445h101v-445
q0 -35 22.5 -50t52.5 -15h15q13 0 17.5 -13.5t4.5 -39.5q0 -29 -4.5 -43t-17.5 -14h-20q-37 0 -68.5 12.5t-54.5 50.5q-24 -38 -53 -50.5t-62 -12.5h-321z" />
    <glyph glyph-name="lam.fina" unicode="&#x644;" horiz-adv-x="678" arabic-form="final" 
d="M667 0q-20 0 -40.5 6.5t-34.5 26.5v-13q0 -55 -17 -102.5t-49 -83t-77.5 -56t-102.5 -20.5h-63q-112 0 -174 69t-62 189v179h101v-175q0 -35 8 -63t25.5 -48t46 -31t69.5 -11h44q42 0 71.5 12.5t48 34t26.5 50t8 60.5v596h101v-446q0 -32 20.5 -48t50.5 -16h11
q22 0 22 -53q0 -57 -22 -57h-11z" />
    <glyph glyph-name="lam.init" unicode="&#x644;" horiz-adv-x="256" arabic-form="initial" 
d="M23 110q68 0 68 65v445h102v-452q0 -83 -42.5 -125.5t-118.5 -42.5h-32q-13 0 -17.5 13.5t-4.5 39.5q0 29 4.5 43t17.5 14h23z" />
    <glyph glyph-name="lam.medi" unicode="&#x644;" horiz-adv-x="282" arabic-form="medial" 
d="M23 110q68 0 68 65v445h102v-445q0 -35 21.5 -50t51.5 -15h16q22 0 22 -53q0 -57 -22 -57h-20q-37 0 -69 12.5t-55 50.5q-23 -38 -52.5 -50.5t-62.5 -12.5h-23q-13 0 -17.5 13.5t-4.5 39.5q0 29 4.5 43t17.5 14h23z" />
    <glyph glyph-name="mim.fina" unicode="&#x645;" horiz-adv-x="657" arabic-form="final" 
d="M576 190q0 -43 19.5 -61.5t47.5 -18.5h14q13 0 17.5 -13.5t4.5 -39.5q0 -29 -4.5 -43t-17.5 -14h-14q-15 0 -30 2t-29.5 8t-28 17.5t-24.5 31.5q-25 -36 -60.5 -47.5t-67.5 -11.5q-70 0 -113 36.5t-43 106.5v51q0 28 5 47t19 31h-23q-48 0 -71 -20t-23 -58v-436h-102v440
q0 35 12.5 67.5t36.5 57.5t60 40t84 15h181q42 0 70.5 -11.5t46.5 -31t25.5 -45.5t7.5 -55v-45zM411 110q35 0 51.5 15t16.5 41v43q0 26 -13.5 42.5t-44.5 16.5h-21q-29 0 -42.5 -17t-13.5 -43v-40q0 -27 15.5 -42.5t51.5 -15.5z" />
    <glyph glyph-name="mim.init" unicode="&#x645;" horiz-adv-x="471" arabic-form="initial" 
d="M9 110q34 0 53 13.5t19 44.5v22q0 40 11.5 74t33.5 58t53.5 37.5t70.5 13.5q41 0 72.5 -13.5t52.5 -38t32 -58.5t11 -74q0 -90 -45.5 -139.5t-123.5 -49.5q-40 0 -76.5 15.5t-55.5 49.5q-19 -39 -49 -52t-59 -13h-9q-13 0 -17.5 13.5t-4.5 39.5q0 29 4.5 43t17.5 14h9z
M320 182q0 34 -15.5 57t-55.5 23q-38 0 -54.5 -22.5t-16.5 -58.5q0 -35 19 -53t52 -18q71 0 71 72z" />
    <glyph glyph-name="mim.medi" unicode="&#x645;" horiz-adv-x="499" arabic-form="medial" 
d="M9 110q34 0 53 13.5t19 44.5v22q0 40 11.5 74t33.5 58t53.5 37.5t70.5 13.5q41 0 72.5 -13.5t52.5 -38t32 -57.5t11 -72v-19q0 -36 21.5 -49.5t45.5 -13.5h14q13 0 17.5 -13.5t4.5 -39.5q0 -29 -4.5 -43t-17.5 -14h-14q-29 0 -59 12.5t-52 53.5q-27 -41 -60.5 -53.5
t-68.5 -12.5q-40 0 -74.5 15.5t-53.5 49.5q-19 -39 -49 -52t-59 -13h-9q-13 0 -17.5 13.5t-4.5 39.5q0 29 4.5 43t17.5 14h9zM320 182q0 34 -15.5 57t-55.5 23q-38 0 -54.5 -22.5t-16.5 -58.5q0 -35 19 -53t52 -18q71 0 71 72z" />
    <glyph glyph-name="nun.fina" unicode="&#x646;" horiz-adv-x="678" arabic-form="final" 
d="M667 0q-20 0 -40.5 6.5t-34.5 26.5v-13q0 -55 -17 -102.5t-48.5 -83t-77.5 -56t-103 -20.5h-63q-112 0 -174 69t-62 189v179h101v-175q0 -35 8 -63t25.5 -48t46 -31t69.5 -11h44q42 0 71.5 12.5t48 34t26.5 50t8 60.5v269h101v-119q0 -32 20.5 -48t50.5 -16h11
q22 0 22 -53q0 -57 -22 -57h-11zM361 308h-113v102h113v-102z" />
    <glyph glyph-name="nun.init" unicode="&#x646;" horiz-adv-x="314" arabic-form="initial" 
d="M92 110q67 0 67 65v118h102v-125q0 -83 -42 -125.5t-118 -42.5h-101q-13 0 -17.5 13.5t-4.5 39.5q0 29 4.5 43t17.5 14h92zM230 410h-113v102h113v-102z" />
    <glyph glyph-name="nun.medi" unicode="&#x646;" horiz-adv-x="338" arabic-form="medial" 
d="M70 110q67 0 67 65v118h103v-118q0 -35 21.5 -50t50.5 -15h26q23 0 23 -53q0 -57 -23 -57h-29q-38 0 -69 12.5t-54 50.5q-25 -38 -54 -50.5t-62 -12.5h-70q-13 0 -17.5 13.5t-4.5 39.5q0 29 4.5 43t17.5 14h70zM236 410h-113v102h113v-102z" />
    <glyph glyph-name="he.fina" unicode="&#x647;" horiz-adv-x="477" arabic-form="final" 
d="M219 141q39 0 59 16.5t20 44.5v95h-70q-42 0 -60 -24.5t-18 -63.5q0 -36 16.5 -52t52.5 -16zM397 179q0 -32 13.5 -50.5t43.5 -18.5h23q13 0 17.5 -13.5t4.5 -39.5q0 -29 -4.5 -43t-17.5 -14h-23q-51 0 -82.5 18t-47.5 61q-25 -28 -59.5 -35.5t-66.5 -7.5
q-71 0 -108.5 41.5t-37.5 123.5q0 37 10.5 72.5t31 63.5t52 45t73.5 17h79v67h99v-287z" />
    <glyph glyph-name="he.init" unicode="&#x647;" horiz-adv-x="701" arabic-form="initial" 
d="M247 300q-34 0 -54.5 -22t-20.5 -55t23.5 -59.5t55.5 -43.5q30 17 50 43t20 58q0 35 -20.5 57t-53.5 22zM0 0q-13 0 -17.5 13.5t-4.5 39.5q0 29 4.5 43t17.5 14h143q-65 57 -65 129q0 33 12 63t35 53.5t55.5 37t74.5 13.5q41 0 71.5 -14t50 -37t29 -52t9.5 -59
q0 -41 -15.5 -73.5t-44.5 -60.5h140q48 0 48 37q0 8 -4 18t-15 24l-166 202l75 71l169 -208q29 -35 40.5 -65.5t11.5 -59.5q0 -27 -9.5 -50.5t-28.5 -41t-47.5 -27.5t-65.5 -10h-110q-46 0 -81.5 4t-55.5 15q-15 -7 -35.5 -11t-42 -5.5t-42 -2t-34.5 -0.5h-102z" />
    <glyph glyph-name="he.medi" unicode="&#x647;" horiz-adv-x="527" arabic-form="medial" 
d="M81 110v68q0 36 7.5 73t26.5 66.5t51.5 48.5t82.5 19q37 0 65.5 -12.5t47.5 -33.5t29 -50t10 -62q0 -48 -18.5 -87t-50 -68t-72.5 -46.5t-86 -21.5v-66q0 -35 13.5 -50.5t37.5 -20.5l85 107q40 49 66.5 76t49 40.5t45.5 16.5t56 3q13 0 17.5 -13.5t4.5 -39.5
q0 -29 -4.5 -43t-17.5 -14q-25 0 -44 -2t-38.5 -13t-42.5 -34.5t-56 -66.5l-96 -126q-36 0 -67 10.5t-53.5 31.5t-35.5 53.5t-13 76.5v70h-81q-13 0 -17.5 13.5t-4.5 39.5q0 29 4.5 43t17.5 14h81zM174 106q36 3 61 13t41.5 24t24 31t7.5 35q0 30 -16 50t-47 20
q-34 0 -52.5 -24t-18.5 -72v-77z" />
    <glyph glyph-name="vav.fina" unicode="&#x648;" horiz-adv-x="476" arabic-form="final" 
d="M144 -133q38 0 65.5 10.5t45.5 28.5t28 42.5t12 51.5h-68q-52 0 -85 11t-52 32.5t-26.5 52.5t-7.5 70t11 73.5t32.5 60.5t53.5 41.5t74 15.5q34 0 64.5 -11t53.5 -35t36.5 -62t13.5 -93v-46h81q22 0 22 -53q0 -57 -22 -57h-83q-2 -49 -20 -93t-49.5 -77t-75.5 -52.5
t-99 -19.5h-101l-6 109h102zM154 173q0 -35 15.5 -49t61.5 -14h66v47q0 52 -19.5 73t-54.5 21q-33 0 -51 -20t-18 -58z" />
    <glyph glyph-name="alef.maksura.fina" unicode="&#x649;" horiz-adv-x="689" arabic-form="final" 
d="M375 -133q44 0 73.5 6t47 17t25 26.5t7.5 33.5q0 20 -11 35t-37 15h-144l6 110h347q22 0 22 -53q0 -57 -22 -57h-86q13 -10 17.5 -26t4.5 -39q0 -27 -12 -58t-39.5 -57.5t-73 -44t-111.5 -17.5h-106q-112 0 -174 69t-62 189v179h101v-175q0 -35 8 -63t25.5 -48t46 -31
t69.5 -11h78z" />
    <glyph glyph-name="ye.arab.fina" unicode="&#x64a;" horiz-adv-x="689" arabic-form="final" 
d="M375 -133q44 0 73.5 6t47 17t25 26.5t7.5 33.5q0 20 -11 35t-37 15h-144l6 110h347q22 0 22 -53q0 -57 -22 -57h-86q13 -10 17.5 -26t4.5 -39q0 -27 -12 -58t-39.5 -57.5t-73 -44t-111.5 -17.5h-106q-112 0 -174 69t-62 189v179h101v-175q0 -35 8 -63t25.5 -48t46 -31
t69.5 -11h78zM449 -435h-103v98h103v-98zM305 -435h-103v98h103v-98z" />
    <glyph glyph-name=".notdef" horiz-adv-x="544" 
d="M462 0h-396v610h396v-610zM164 500v-390h200v390h-200z" />
    <glyph glyph-name=".null" horiz-adv-x="957" 
 />
    <glyph glyph-name="nonmarkingreturn" horiz-adv-x="957" 
 />
    <glyph glyph-name="line_feed" unicode="&#xa;" 
 />
    <glyph glyph-name="carriage_return" unicode="&#xd;" 
 />
    <glyph glyph-name="space" unicode=" " horiz-adv-x="140" 
 />
    <glyph glyph-name="exclam" unicode="!" horiz-adv-x="236" 
d="M167 480q0 -48 -1.5 -87.5t-4 -74.5t-5.5 -67t-7 -65h-62q-3 33 -7 64.5t-7 66.5t-5 75t-2 88v126h101v-126zM119 0q-29 0 -45 14t-16 46t16 46t45 14q27 0 43.5 -14t16.5 -46t-16.5 -46t-43.5 -14z" />
    <glyph glyph-name="quotedbl" unicode="&#x22;" horiz-adv-x="337" 
d="M49 610h90v-236h-90v236zM197 610h90v-236h-90v236z" />
    <glyph glyph-name="numbersign" unicode="#" horiz-adv-x="686" 
d="M202 370h-133v88h146l24 141l79 -11l-21 -130h141l25 141l80 -11l-23 -130h119v-88h-132l-26 -145h136v-84h-150l-24 -141l-80 11l22 130h-141l-25 -141l-80 11l23 130h-115v84h130zM400 225l24 145h-141l-24 -145h141z" />
    <glyph glyph-name="quotesingle" unicode="'" horiz-adv-x="188" 
d="M49 610h90v-236h-90v236z" />
    <glyph glyph-name="parenleft" unicode="(" horiz-adv-x="313" 
d="M148 210q0 -57 6 -101t19.5 -82t36 -73t56.5 -74l-61 -62q-36 35 -65.5 73.5t-50 85t-31.5 103.5t-11 129t11 129t31.5 103.5t50 84.5t65.5 73l61 -62q-34 -39 -56.5 -73.5t-36 -72t-19.5 -81.5t-6 -100z" />
    <glyph glyph-name="parenright" unicode=")" horiz-adv-x="313" 
d="M165.009 208.013q0 56.9971 -5.99902 100.994q-6 43.9971 -19.499 81.9951q-13.499 37.9971 -35.998 72.9951t-56.4961 73.9951l60.9961 61.9971q35.998 -34.998 65.4961 -73.4961q29.498 -38.4971 49.9971 -84.9941q20.498 -46.498 31.498 -103.494
q10.999 -56.9961 10.999 -128.992q0 -71.9951 -10.999 -128.992q-11 -56.9961 -31.498 -103.493q-20.499 -46.498 -49.9971 -84.4951q-29.498 -37.998 -65.4961 -72.9961l-60.9961 61.9971q33.9971 38.9971 56.4961 73.4951t35.998 71.9951q13.499 37.498 19.499 81.4951
q5.99902 43.998 5.99902 99.9941z" />
    <glyph glyph-name="asterisk" unicode="*" horiz-adv-x="505" 
d="M161 214l-66 53l95 117l-143 52l33 78l134 -57l-4 154h85l-4 -154l134 57l34 -78l-144 -52l96 -117l-67 -53l-91 125z" />
    <glyph glyph-name="plus" unicode="+" horiz-adv-x="495" 
d="M47 148v94h157v153h93v-153h152v-94h-152v-148h-93v148h-157z" />
    <glyph glyph-name="hyphen_minus" unicode="-" horiz-adv-x="495" 
d="M47 148v98h402v-98h-402z" />
    <glyph glyph-name="period" unicode="." horiz-adv-x="253" 
d="M126 0q-32 0 -50 17.5t-18 52.5q0 36 18 53.5t50 17.5t50.5 -17.5t18.5 -53.5q0 -35 -18.5 -52.5t-50.5 -17.5z" />
    <glyph glyph-name="slash" unicode="/" horiz-adv-x="565" 
d="M439 587l79 -53l-392 -611l-79 53z" />
    <glyph glyph-name="zero" unicode="0" horiz-adv-x="542" 
d="M504 262q0 -83 -18 -144t-49.5 -101t-74.5 -59.5t-93 -19.5t-92 19.5t-73 59.5t-48.5 101t-17.5 144q0 84 17.5 145t48.5 101t73 59.5t92 19.5t93 -19.5t74.5 -59.5t49.5 -101t18 -145zM392 262q0 70 -10 116t-27.5 73.5t-39.5 38.5t-46 11q-23 0 -45 -11t-39 -38.5
t-27 -73.5t-10 -116q0 -69 10 -115t27 -73t39 -38t45 -11q24 0 46 11t39.5 38t27.5 73t10 115z" />
    <glyph glyph-name="one" unicode="1" horiz-adv-x="360" 
d="M279 581v-636h-107v456v24t1 25l-74 -67q-13 -10 -31 -9.5t-28 12.5l-32 37l182 158h89z" />
    <glyph glyph-name="two" unicode="2" horiz-adv-x="494" 
d="M420 42q17 0 27.5 -9t10.5 -26v-62h-436v35q0 10 4 21.5t15 21.5l193 195q50 49 76.5 92t26.5 94q0 47 -25.5 71t-68.5 24q-39 0 -65 -21.5t-34 -54.5q-8 -19 -20 -26t-34 -2l-57 9q13 91 72.5 137t144.5 46q44 0 80.5 -13t62.5 -36.5t40.5 -56.5t14.5 -74
q0 -36 -10.5 -66t-28 -57t-41 -52.5t-48.5 -52.5l-147 -149q43 12 83 12h164z" />
    <glyph glyph-name="three" unicode="3" horiz-adv-x="504" 
d="M45 404q14 91 72.5 137t143.5 46q44 0 79.5 -12.5t60.5 -34t38.5 -51.5t13.5 -65q0 -62 -28 -95.5t-76 -48.5q59 -17 88 -54t29 -93q0 -47 -17.5 -83.5t-47 -61.5t-69 -37.5t-83.5 -12.5q-48 0 -84 11t-62.5 32.5t-44.5 53t-31 71.5l47 19q19 7 35.5 4t23.5 -17
q8 -15 17.5 -30.5t22.5 -28t31 -20.5t43 -8q28 0 48.5 9.5t34.5 24.5t21 33.5t7 36.5q0 23 -4.5 42t-20 33t-44.5 21.5t-77 7.5v75q40 0 66 7t41.5 19.5t22 30.5t6.5 40q0 47 -24.5 70.5t-68.5 23.5q-38 0 -64.5 -21.5t-35.5 -54.5q-7 -20 -19 -26.5t-34 -1.5z" />
    <glyph glyph-name="four" unicode="4" horiz-adv-x="527" 
d="M320 183v215q0 14 1.5 28t3.5 30l-201 -273h196zM495 183v-60q0 -21 -21 -21h-59v-157h-95v157h-268q-12 0 -19.5 6.5t-9.5 15.5l-12 53l301 403h103v-397h80z" />
    <glyph glyph-name="five" unicode="5" horiz-adv-x="472" 
d="M156 349q41 7 79 7q50 0 88 -15t64 -41t39 -61.5t13 -75.5q0 -51 -18 -92.5t-49.5 -71t-74.5 -45.5t-93 -16q-60 0 -107.5 22.5t-79.5 51.5l33 44q10 14 27 14q12 0 23.5 -7t26 -15t34.5 -15t48 -7q60 0 91 37t31 95q0 53 -30 83t-90 30q-22 0 -45 -4t-47 -13l-68 19
l53 306h314v-44q0 -22 -14.5 -36t-48.5 -14h-176z" />
    <glyph glyph-name="six" unicode="6" horiz-adv-x="511" 
d="M254 23q26 0 48 9t37.5 25t24.5 37.5t9 47.5q0 57 -32.5 88.5t-84.5 31.5q-26 0 -47 -9.5t-36 -25t-23.5 -37t-8.5 -45.5q0 -55 28 -88.5t85 -33.5zM202 312q18 14 41.5 21t49.5 7q37 0 71 -12t60 -36t42 -59.5t16 -82.5q0 -44 -16.5 -83t-46 -67.5t-71 -45t-92.5 -16.5
t-91.5 16t-69 45t-43.5 69.5t-15 90.5q0 90 74 191l152 205q8 11 23.5 17.5t35.5 6.5h96l-189 -231q-8 -10 -14.5 -18.5t-12.5 -17.5z" />
    <glyph glyph-name="seven" unicode="7" horiz-adv-x="465" 
d="M453 579v-45q0 -20 -4.5 -32.5t-9.5 -20.5l-241 -500q-8 -16 -21.5 -26t-36.5 -10h-78l246 490q8 15 16 27t19 23h-305q-10 0 -17.5 7t-7.5 17v70h440z" />
    <glyph glyph-name="eight" unicode="8" horiz-adv-x="514" 
d="M255 20q54 0 81.5 29t27.5 76q0 54 -29 80.5t-80 26.5t-80.5 -26.5t-29.5 -80.5q0 -47 28 -76t82 -29zM255 508q-49 0 -71.5 -28t-22.5 -64q0 -20 4.5 -38t15.5 -32t29 -22.5t45 -8.5t45 8.5t29 22.5t15.5 32t4.5 38q0 36 -22.5 64t-71.5 28zM359 276q117 -36 117 -154
q0 -42 -16 -76t-45 -58t-70 -37t-90 -13t-89.5 13t-70 37t-45.5 58t-16 76q0 118 117 154q-96 38 -96 141q0 36 14.5 67.5t41 54t63.5 35.5t81 13t80.5 -13t63 -35.5t41 -54t14.5 -67.5q0 -103 -95 -141z" />
    <glyph glyph-name="nine" unicode="9" horiz-adv-x="474" 
d="M123 391q0 -56 27.5 -84t78.5 -28q53 0 81.5 31.5t28.5 79.5q0 53 -30.5 82t-78.5 29q-50 0 -78.5 -31t-28.5 -79zM268 192q9 12 16 22l14 20q-22 -17 -49 -26t-58 -9q-33 0 -65 11.5t-57 35t-40 57.5t-15 79q0 42 16 79.5t44.5 65.5t68.5 44t89 16q48 0 87 -15.5
t66.5 -43t42 -66t14.5 -84.5q0 -59 -19 -106t-52 -93l-146 -210q-8 -11 -22 -17.5t-33 -6.5h-101z" />
    <glyph glyph-name="colon" unicode=":" horiz-adv-x="253" 
d="M126 242q-32 0 -50 17.5t-18 52.5q0 36 18 53.5t50 17.5t50.5 -17.5t18.5 -53.5q0 -35 -18.5 -52.5t-50.5 -17.5zM126 0q-32 0 -50 17.5t-18 52.5q0 36 18 53.5t50 17.5t50.5 -17.5t18.5 -53.5q0 -35 -18.5 -52.5t-50.5 -17.5z" />
    <glyph glyph-name="less" unicode="&#x3c;" horiz-adv-x="456" 
d="M409 85l-40 -97l-322 172v96l322 174l40 -98l-249 -123z" />
    <glyph glyph-name="equal" unicode="=" horiz-adv-x="495" 
d="M47 44v98h402v-98h-402zM47 252v98h402v-98h-402z" />
    <glyph glyph-name="greater" unicode="&#x3e;" horiz-adv-x="456" 
d="M47.0254 85l39.9971 -97l321.98 172v96l-321.98 174l-39.9971 -98l248.984 -123z" />
    <glyph glyph-name="bracketleft" unicode="[" horiz-adv-x="306" 
d="M260 594v-93h-117v-584h117v-93h-211v770h211z" />
    <glyph glyph-name="backslash" unicode="\" horiz-adv-x="565" 
d="M126.026 587l-78.9951 -53l391.977 -611l78.9951 53z" />
    <glyph glyph-name="bracketright" unicode="]" horiz-adv-x="306" 
d="M46.0156 594v-93h116.993v-584h-116.993v-93h210.987v770h-210.987z" />
    <glyph glyph-name="underscore" unicode="_" horiz-adv-x="476" 
d="M47 68h383v-76h-383v76z" />
    <glyph glyph-name="braceleft" unicode="{" horiz-adv-x="371" 
d="M47 253q30 1 47 12t26 31.5t11.5 51t2.5 71.5q0 40 4 72.5t17.5 55t38.5 35t68 12.5h62v-93h-36q-15 0 -26 -3.5t-18 -13t-10 -27.5t-3 -47q0 -45 -3 -78.5t-10.5 -57t-21 -39.5t-35.5 -27q22 -11 35.5 -27t21 -40t10.5 -57t3 -78q0 -29 3 -46.5t10 -27t18 -12.5t26 -3
h36v-93h-62q-43 0 -68 12t-38.5 34t-17.5 54t-4 73t-2.5 71.5t-11.5 51t-26 31.5t-47 12v90z" />
    <glyph glyph-name="bar" unicode="|" horiz-adv-x="201" 
d="M151 -176h-102v770h102v-770z" />
    <glyph glyph-name="braceright" unicode="}" horiz-adv-x="371" 
d="M324.003 253q-29.998 1 -46.9971 12t-25.998 31.5q-9 20.5 -11.5 51t-2.5 71.5q0 40 -3.99902 72.5q-4 32.5 -17.499 55t-38.498 35q-24.998 12.5 -67.9961 12.5h-61.9961v-93h35.998q14.999 0 25.998 -3.5q11 -3.5 17.999 -13q7 -9.5 10 -27.5q2.99902 -18 2.99902 -47
q0 -45 3 -78.5t10.5 -57q7.49902 -23.5 20.998 -39.5t35.498 -27q-21.999 -11 -35.498 -27t-20.998 -40q-7.5 -24 -10.5 -57t-3 -78q0 -29 -2.99902 -46.5q-3 -17.5 -10 -27q-6.99902 -9.5 -17.999 -12.5q-10.999 -3 -25.998 -3h-35.998v-93h61.9961q42.998 0 67.9961 12
q24.999 12 38.498 34t17.499 54q3.99902 32 3.99902 73t2.5 71.5t11.5 51q8.99902 20.5 25.998 31.5t46.9971 12v90z" />
    <glyph glyph-name="nonbreakingspace" unicode="&#xa0;" horiz-adv-x="124" 
 />
    <glyph glyph-name="brokenbar" unicode="&#xa6;" horiz-adv-x="201" 
d="M151 280h-102v314h102v-314zM151 -176h-102v313h102v-313z" />
    <glyph glyph-name="guillemotleft" unicode="&#xab;" horiz-adv-x="460" 
d="M144 208q0 -33 2.5 -61.5t10.5 -56t23.5 -56.5t42.5 -63l-63 -54q-36 39 -58.5 76.5t-34.5 74t-16 71.5t-4 70t4 70t16 71.5t34.5 74t58.5 76.5l63 -54q-27 -34 -42.5 -63.5t-23.5 -57.5t-10.5 -56.5t-2.5 -61.5zM334 208q0 -33 2.5 -61.5t10.5 -56t23.5 -56.5t42.5 -63
l-63 -54q-36 39 -58.5 76.5t-34.5 74t-16 71.5t-4 70t4 70t16 71.5t34.5 74t58.5 76.5l63 -54q-27 -34 -42.5 -63.5t-23.5 -57.5t-10.5 -56.5t-2.5 -61.5z" />
    <glyph glyph-name="logicalnot" unicode="&#xac;" horiz-adv-x="495" 
d="M358 230h-311v93h402v-266h-91v173z" />
    <glyph glyph-name="softHyphen" unicode="&#xad;" horiz-adv-x="434" 
d="M47 142v98h341v-98h-341z" />
    <glyph glyph-name="degree" unicode="&#xb0;" horiz-adv-x="345" 
d="M47 473q0 26 10 49t27 40t39.5 27t48.5 10t49 -10t40 -27t27 -40t10 -49t-10 -48.5t-27 -39.5t-40 -27t-49 -10t-48.5 10t-39.5 27t-27 39.5t-10 48.5zM119 474q0 -23 15.5 -38t37.5 -15q23 0 38 15t15 38q0 22 -15 37.5t-38 15.5q-22 0 -37.5 -15.5t-15.5 -37.5z" />
    <glyph glyph-name="plusminus" unicode="&#xb1;" horiz-adv-x="495" 
d="M47 0v98h402v-98h-402zM47 314v94h157v153h93v-153h152v-94h-152v-148h-93v148h-157z" />
    <glyph glyph-name="paragraph" unicode="&#xb6;" horiz-adv-x="495" 
d="M445 0h-89v529h-73v-529h-85v304q-40 0 -68.5 5t-47 20.5t-27 43.5t-8.5 75t9 75.5t27.5 44.5t48 21t70.5 5h243v-594z" />
    <glyph glyph-name="periodcentered" unicode="&#xb7;" horiz-adv-x="286" 
d="M148 198q-32 0 -50 17.5t-18 52.5q0 36 18 53.5t50 17.5t50.5 -17.5t18.5 -53.5q0 -35 -18.5 -52.5t-50.5 -17.5z" />
    <glyph glyph-name="guillemotright" unicode="&#xbb;" horiz-adv-x="460" 
d="M125.009 208q0 -33 -2.5 -61.5t-10.499 -56q-8 -27.5 -23.499 -56.5t-42.4971 -63l62.9961 -54q35.998 39 58.4961 76.5q22.499 37.5 34.498 74t15.999 71.5t4 70t-4 70t-15.999 71.5t-34.498 74q-22.498 37.5 -58.4961 76.5l-62.9961 -54q26.998 -34 42.4971 -63.5
t23.499 -57.5q7.99902 -28 10.499 -56.5t2.5 -61.5zM316.009 208q0 -33 -2.5 -61.5t-10.499 -56q-8 -27.5 -23.499 -56.5t-42.4971 -63l62.9961 -54q35.998 39 58.4961 76.5q22.499 37.5 34.498 74t15.999 71.5t4 70t-4 70t-15.999 71.5t-34.498 74
q-22.498 37.5 -58.4961 76.5l-62.9961 -54q26.998 -34 42.4971 -63.5t23.499 -57.5q7.99902 -28 10.499 -56.5t2.5 -61.5z" />
    <glyph glyph-name="multiply" unicode="&#xd7;" horiz-adv-x="491" 
d="M47 335l65 65l133 -132l132 132l66 -65l-132 -133l133 -133l-66 -66l-133 133l-133 -133l-65 66l132 133z" />
    <glyph glyph-name="divide" unicode="&#xf7;" horiz-adv-x="495" 
d="M188 104h115v-104h-115v104zM188 491h115v-105h-115v105zM47 196v98h402v-98h-402z" />
    <glyph glyph-name="darhezar" unicode="&#x609;" horiz-adv-x="997" 
d="M824 209q25 0 47.5 -10.5t40 -28.5t28 -40.5t10.5 -46.5t-10.5 -47t-28 -40.5t-40 -28t-47.5 -10.5q-24 0 -47 10.5t-41 28t-28.5 40.5t-10.5 47t10.5 46.5t28.5 40.5t41 28.5t47 10.5zM824 38q17 0 31 13.5t14 31.5q0 17 -14 31t-31 14t-31.5 -14t-14.5 -31
q0 -18 14.5 -31.5t31.5 -13.5zM523 209q25 0 47.5 -10.5t40 -28.5t28 -40.5t10.5 -46.5t-10.5 -47t-28 -40.5t-40 -28t-47.5 -10.5t-47.5 10.5t-40 28t-28 40.5t-10.5 47t10.5 46.5t28 40.5t40 28.5t47.5 10.5zM523 38q17 0 31 13.5t14 31.5q0 17 -14 31t-31 14t-31.5 -14
t-14.5 -31q0 -18 14.5 -31.5t31.5 -13.5zM173 301q-24 0 -47 10.5t-40.5 28.5t-28 40.5t-10.5 46.5t10.5 47t28 40.5t40.5 28t47 10.5t47 -10.5t41 -28t28.5 -40.5t10.5 -47t-10.5 -46.5t-28.5 -40.5t-41 -28.5t-47 -10.5zM173 472q-17 0 -31.5 -13.5t-14.5 -31.5
q0 -17 14.5 -31t31.5 -14t31.5 14t14.5 31q0 18 -14.5 31.5t-31.5 13.5zM504 587l79 -53l-392 -611l-79 53z" />
    <glyph glyph-name="darDahezar" unicode="&#x60a;" horiz-adv-x="1298" 
d="M1125 209q25 0 47.5 -10.5t40 -28.5t28 -40.5t10.5 -46.5t-10.5 -47t-28 -40.5t-40 -28t-47.5 -10.5q-24 0 -47 10.5t-40.5 28t-28 40.5t-10.5 47t10.5 46.5t28 40.5t40.5 28.5t47 10.5zM1125 38q17 0 31 13.5t14 31.5q0 17 -14 31t-31 14t-31.5 -14t-14.5 -31
q0 -18 14.5 -31.5t31.5 -13.5zM824 209q25 0 47.5 -10.5t40 -28.5t28 -40.5t10.5 -46.5t-10.5 -47t-28 -40.5t-40 -28t-47.5 -10.5q-24 0 -47 10.5t-41 28t-28.5 40.5t-10.5 47t10.5 46.5t28.5 40.5t41 28.5t47 10.5zM824 38q17 0 31 13.5t14 31.5q0 17 -14 31t-31 14
t-31.5 -14t-14.5 -31q0 -18 14.5 -31.5t31.5 -13.5zM523 209q25 0 47.5 -10.5t40 -28.5t28 -40.5t10.5 -46.5t-10.5 -47t-28 -40.5t-40 -28t-47.5 -10.5t-47.5 10.5t-40 28t-28 40.5t-10.5 47t10.5 46.5t28 40.5t40 28.5t47.5 10.5zM523 38q17 0 31 13.5t14 31.5
q0 17 -14 31t-31 14t-31.5 -14t-14.5 -31q0 -18 14.5 -31.5t31.5 -13.5zM173 301q-24 0 -47 10.5t-40.5 28.5t-28 40.5t-10.5 46.5t10.5 47t28 40.5t40.5 28t47 10.5t47 -10.5t41 -28t28.5 -40.5t10.5 -47t-10.5 -46.5t-28.5 -40.5t-41 -28.5t-47 -10.5zM173 472
q-17 0 -31.5 -13.5t-14.5 -31.5q0 -17 14.5 -31t31.5 -14t31.5 14t14.5 31q0 18 -14.5 31.5t-31.5 13.5zM504 587l79 -53l-392 -611l-79 53z" />
    <glyph glyph-name="virgul" unicode="&#x60c;" horiz-adv-x="253" 
d="M126 0q-32 0 -50 18.5t-18 60.5q0 55 4.5 90.5t18 56t39 30t67.5 14.5v-60q-22 -4 -34.5 -8t-18.5 -11t-7.5 -19t-1.5 -31q33 0 51.5 -16t18.5 -55q0 -35 -18.5 -52.5t-50.5 -17.5z" />
    <glyph glyph-name="tarikh.sep" unicode="&#x60d;" horiz-adv-x="410" 
d="M276 295l84 -57l-227 -348l-84 57z" />
    <glyph glyph-name="noqte_virgul" unicode="&#x61b;" horiz-adv-x="253" 
d="M126 242q-32 0 -50 18.5t-18 60.5q0 55 4.5 90.5t18 56t39 30t67.5 14.5v-60q-22 -4 -34.5 -8t-18.5 -11t-7.5 -19t-1.5 -31q33 0 51.5 -16t18.5 -55q0 -35 -18.5 -52.5t-50.5 -17.5zM126 0q-32 0 -50 17.5t-18 52.5q0 36 18 53.5t50 17.5t50.5 -17.5t18.5 -53.5
q0 -35 -18.5 -52.5t-50.5 -17.5z" />
    <glyph glyph-name="soal" unicode="&#x61f;" horiz-adv-x="425" 
d="M273 416q0 86 -62 86q-26 0 -41 -15.5t-15 -38.5q0 -20 11.5 -35.5t36.5 -40.5q19 -20 31 -36t18.5 -36t8.5 -47t2 -69h-98q0 31 -1 50t-5.5 32.5t-14.5 26t-27 31.5q-29 32 -44 62.5t-15 70.5q0 33 12 60.5t32.5 47.5t48.5 31t61 11q83 0 119 -52t36 -139h-94zM209 0
q-28 0 -44.5 14t-16.5 46t16.5 46t44.5 14t44 -14t16 -46t-16 -46t-44 -14z" />
    <glyph glyph-name="kashidas" unicode="&#x640;" horiz-adv-x="165" 
d="M165 110q13 0 17.5 -13.5t4.5 -39.5q0 -29 -4.5 -43t-17.5 -14h-165q-13 0 -17.5 13.5t-4.5 39.5q0 29 4.5 43t17.5 14h165z" />
    <glyph glyph-name=".an" unicode="&#x64b;" 
d="M111 156l23 -58l-237 -98l-23 58zM103 285l23 -58l-237 -98l-23 58z" />
    <glyph glyph-name=".on" unicode="&#x64c;" 
d="M3 105q-15 11 -24.5 29.5t-9.5 39.5q0 41 27 67.5t65 26.5q42 0 68 -27t26 -70q0 -31 -18.5 -57t-62.5 -46l-168 -68l-26 51v62q0 22 -18 22h-34v59h56q20 0 31.5 -11t11.5 -37v-70zM25 170q0 -27 35 -46q17 8 27.5 20t10.5 27q0 14 -9 25.5t-28 11.5t-27.5 -12t-8.5 -26
z" />
    <glyph glyph-name=".en" unicode="&#x64d;" 
d="M111 -130l23 -58l-237 -98l-23 58zM103 0l23 -58l-237 -98l-23 58z" />
    <glyph glyph-name=".a" unicode="&#x64e;" 
d="M107 156l23 -58l-237 -98l-23 58z" />
    <glyph glyph-name=".o" unicode="&#x64f;" 
d="M-139 58l122 47q-16 11 -25.5 29.5t-9.5 39.5q0 41 27.5 67.5t65.5 26.5q42 0 67.5 -27t25.5 -70q0 -31 -18.5 -57t-61.5 -46l-168 -68zM5 170q0 -27 34 -46q38 16 38 47q0 14 -8.5 25.5t-27.5 11.5q-20 0 -28 -12t-8 -26z" />
    <glyph glyph-name=".e" unicode="&#x650;" 
d="M107 0l23 -58l-237 -98l-23 58z" />
    <glyph glyph-name=".shdd" unicode="&#x651;" 
d="M0 19q-7 -7 -15.5 -13t-19.5 -6h-35q-13 0 -28.5 4t-29.5 16.5t-23.5 36t-9.5 62.5v61h63v-71q0 -29 12.5 -37.5t32.5 -8.5h21v117h63v-117h22q19 0 32 8.5t13 37.5v71h63v-61q0 -39 -10 -62.5t-25 -36t-31.5 -16.5t-29.5 -4h-30q-11 0 -19.5 6t-15.5 13z" />
    <glyph glyph-name=".skn" unicode="&#x652;" 
d="M-104 103q0 22 8 41.5t22 33t33 21.5t41 8q45 0 74 -29.5t29 -74.5t-29 -74t-74 -29t-74.5 29t-29.5 74zM-43 103q0 -17 13 -29t30 -12t29.5 12t12.5 29q0 18 -12.5 30.5t-29.5 12.5t-30 -12.5t-13 -30.5z" />
    <glyph glyph-name=".mad" unicode="&#x653;" 
d="M-16 58q-19 0 -30 -1t-20 -7t-19 -17.5t-25 -32.5l-45 31q21 33 34.5 51t27.5 27t32.5 10.5t48.5 1.5h165l-5 -63h-164z" />
    <glyph glyph-name=".thmz" unicode="&#x654;" 
d="M107 88l-187 -94l-27 55l61 29q-23 13 -34 33.5t-11 43.5q0 42 27.5 68t69.5 26h47l-5 -63h-31q-22 0 -33 -11t-11 -27t11 -25.5t26 -9.5q11 0 29.5 8t42.5 21z" />
    <glyph glyph-name=".bhmz" unicode="&#x655;" 
d="M107 -160l-187 -94l-27 55l61 29q-23 13 -34 33.5t-11 43.5q0 42 27.5 68t69.5 26h47l-5 -63h-31q-22 0 -33 -11t-11 -27t11 -25.5t26 -9.5q11 0 29.5 8t42.5 21z" />
    <glyph glyph-name=".i" unicode="&#x656;" 
d="M-32 0h63v-174h-63v174z" />
    <glyph glyph-name="sefr.arab" unicode="&#x660;" horiz-adv-x="437" 
d="M219 386q33 0 63.5 -14.5t54.5 -38t38.5 -54t14.5 -63.5t-14.5 -64t-38.5 -54.5t-54.5 -38t-63.5 -14.5t-64 14.5t-55 38t-38.5 54.5t-14.5 64t14.5 63.5t38.5 54t55 38t64 14.5zM219 143q14 0 27 6t23.5 16t17 23t6.5 28q0 14 -6.5 27t-17 23.5t-23.5 16.5t-27 6
t-27.5 -6t-24 -16.5t-17 -23.5t-6.5 -27q0 -15 6.5 -28t17 -23t24 -16t27.5 -6z" />
    <glyph glyph-name="yek.arab" unicode="&#x661;" horiz-adv-x="240" 
d="M89 -61v243q0 60 -3 103.5t-9 78.5t-14.5 66.5t-18.5 67.5l97 35q13 -39 22.5 -75.5t15.5 -76t9 -86.5t3 -108v-248h-102z" />
    <glyph glyph-name="do.arab" unicode="&#x662;" horiz-adv-x="447" 
d="M255 233q-45 0 -68 24q2 -19 3 -39.5t1 -43.5v-235h-102v243q0 60 -3 103.5t-9 78.5t-14.5 66.5t-18.5 67.5l97 35q9 -35 16.5 -63t15.5 -58q4 -14 9 -27t13 -22.5t19.5 -15t28.5 -5.5q28 0 43.5 15t15.5 38q0 31 -17 116l98 22q8 -37 12.5 -73.5t4.5 -67.5
q0 -35 -10.5 -64.5t-29 -50.5t-45.5 -32.5t-60 -11.5z" />
    <glyph glyph-name="se.arab" unicode="&#x663;" horiz-adv-x="651" 
d="M383 533q8 -37 12.5 -73.5t4.5 -67.5q0 -6 -0.5 -12t-2.5 -14q11 -12 25 -18t27 -6q28 0 43 16t15 36q0 37 -16 117l97 22q8 -37 12 -74t4 -69q0 -34 -10 -62.5t-28.5 -49.5t-45 -33t-58.5 -12q-28 0 -54.5 10t-50.5 35q-19 -22 -44 -33.5t-58 -11.5q-45 0 -68 24
q2 -19 3 -39.5t1 -43.5v-235h-102v243q0 60 -3 103.5t-9 78.5t-14.5 66.5t-18.5 67.5l97 35q9 -35 16.5 -63t15.5 -58q4 -14 9 -27t13 -22.5t19.5 -15t28.5 -5.5q28 0 43.5 15t15.5 38q0 31 -17 116l98 22v0z" />
    <glyph glyph-name="char.arab" unicode="&#x664;" horiz-adv-x="395" 
d="M47 59q0 16 4 33t16 37.5t34.5 44t60.5 52.5q-60 14 -87.5 53t-27.5 90q0 33 12.5 63.5t35 54.5t53 38t65.5 14q32 0 57 -7.5t50 -19.5l-27 -97q-18 5 -36 9.5t-36 4.5q-36 0 -54.5 -20t-18.5 -43q0 -27 22 -43.5t71 -16.5h54v-94q-47 -31 -75 -51.5t-43 -34t-20 -22
t-5 -16.5q0 -34 49 -34h154l-6 -109h-161q-70 0 -105.5 31.5t-35.5 82.5z" />
    <glyph glyph-name="panj.arab" unicode="&#x665;" horiz-adv-x="514" 
d="M47 100q0 29 6.5 59t23 64.5t44.5 75t71 89.5l-43 43l67 75q75 -69 123.5 -124.5t77 -102t40 -86.5t11.5 -77q0 -45 -15.5 -79.5t-43.5 -57t-66.5 -34t-84.5 -11.5h-18q-96 0 -144.5 45.5t-48.5 120.5zM366 126q0 34 -24 82.5t-86 108.5q-50 -53 -79 -101.5t-29 -90.5
q0 -38 24.5 -60t70.5 -22h15q51 0 79.5 22.5t28.5 60.5z" />
    <glyph glyph-name="shish.arab" unicode="&#x666;" horiz-adv-x="450" 
d="M368 280q0 -60 3 -103.5t9 -79t14.5 -67t19.5 -66.5l-94 -36q-12 39 -22 75t-17 76t-10.5 87t-3.5 109v133q0 13 -12 13q-3 0 -16.5 -1.5t-32 -3.5t-40.5 -3.5t-41 -1.5q-29 0 -55.5 6.5t-43.5 31.5l29 91q15 -11 34 -15t48 -4q21 0 45.5 1.5t48 3t44 3t33.5 1.5
q31 0 45.5 -18t14.5 -46v-186z" />
    <glyph glyph-name="haft.arab" unicode="&#x667;" horiz-adv-x="558" 
d="M279 125q10 55 21 104.5t28 99t42 102t63 113.5l85 -53q-38 -65 -68 -123.5t-54 -122t-43.5 -137.5t-37.5 -169h-71q-18 95 -38 169t-44 137.5t-53.5 122t-67.5 123.5l84 53q38 -61 63 -113.5t42.5 -102t28.5 -99t20 -104.5z" />
    <glyph glyph-name="hasht.arab" unicode="&#x668;" horiz-adv-x="558" 
d="M279 347q-9 -55 -20 -104t-28.5 -98.5t-42.5 -102.5t-63 -114l-84 54q38 64 67.5 123t53.5 122.5t44 137t38 168.5h71q18 -95 37.5 -168.5t43.5 -137t54 -122.5t68 -123l-85 -54q-38 61 -63 114t-42 102.5t-28 98.5t-21 104z" />
    <glyph glyph-name="noh.arab" unicode="&#x669;" horiz-adv-x="433" 
d="M285 -61v261q-41 -16 -91 -16q-39 0 -67.5 12t-46.5 33t-26.5 49t-8.5 60q0 38 12.5 74.5t35 64.5t55 45t71.5 17q45 0 76.5 -20t51 -53.5t28.5 -77.5t9 -93v-356h-99zM285 316q0 22 -4 43.5t-13 37.5t-23 26t-34 10q-16 0 -29 -7t-22 -18.5t-13.5 -26t-4.5 -28.5
q0 -27 17 -41t49 -14q23 0 40.5 4t36.5 14z" />
    <glyph glyph-name="darsad" unicode="&#x66a;" horiz-adv-x="696" 
d="M523 209q25 0 47.5 -10.5t40 -28.5t28 -40.5t10.5 -46.5t-10.5 -47t-28 -40.5t-40 -28t-47.5 -10.5t-47.5 10.5t-40 28t-28 40.5t-10.5 47t10.5 46.5t28 40.5t40 28.5t47.5 10.5zM523 38q17 0 31 13.5t14 31.5q0 17 -14 31t-31 14t-31.5 -14t-14.5 -31q0 -18 14.5 -31.5
t31.5 -13.5zM173 301q-24 0 -47 10.5t-40.5 28.5t-28 40.5t-10.5 46.5t10.5 47t28 40.5t40.5 28t47 10.5t47 -10.5t41 -28t28.5 -40.5t10.5 -47t-10.5 -46.5t-28.5 -40.5t-41 -28.5t-47 -10.5zM173 472q-17 0 -31.5 -13.5t-14.5 -31.5q0 -17 14.5 -31t31.5 -14t31.5 14
t14.5 31q0 18 -14.5 31.5t-31.5 13.5zM504 587l79 -53l-392 -611l-79 53z" />
    </font>
</defs>
</svg>
