<?xml version="1.0" standalone="no"?>
<!DOCTYPE svg PUBLIC "-//W3C//DTD SVG 1.1//EN" "http://www.w3.org/Graphics/SVG/1.1/DTD/svg11.dtd" >
<svg xmlns="http://www.w3.org/2000/svg" xmlns:xlink="http://www.w3.org/1999/xlink" version="1.1">
<metadata>
Created by FontForge 20170731 at Sat Sep 30 20:34:12 2017
 By Aleksey,,,
Copyright (c) 2015 by Reza Bakhtiarifard / Bakh. All rights reserved.
</metadata>
<defs>
<font id="YekanBakh-Heavy" horiz-adv-x="0" >
  <font-face 
    font-family="Yekan Bakh Heavy"
    font-weight="900"
    font-stretch="normal"
    units-per-em="1000"
    panose-1="1 0 5 4 0 0 0 2 0 4"
    ascent="800"
    descent="-200"
    bbox="-196 -494 1388 924"
    underline-thickness="25"
    underline-position="-154"
    unicode-range="U+000A-FFFC"
  />
<missing-glyph horiz-adv-x="550" 
d="M462 0h-396v610h396v-610zM187 473v-336h154v336h-154z" />
    <glyph glyph-name="allah" unicode="&#x627;&#xfedf;&#xfee0;&#xfeea;" horiz-adv-x="1257" arabic-form="isolated" 
d="M286 468h122v-275q0 -34 8 -45t41 -11h71q25 0 34.5 9t9.5 30v226h127v-187q0 -17 2.5 -31t10.5 -24.5t22 -16.5t37 -6h16q25 0 34.5 9t9.5 30v314h127v-336q0 -39 -12.5 -68t-33.5 -48t-49 -28.5t-59 -9.5h-39q-33 0 -67.5 11.5t-59.5 49.5q-25 -38 -55.5 -49.5
t-59.5 -11.5h-71q-54 0 -85 17t-48 54q-25 -25 -57.5 -31.5t-62.5 -6.5q-75 0 -112 41.5t-37 129.5q0 37 10.5 72.5t31 63.5t51.5 45t72 17h71v66zM229 275q-35 0 -46.5 -17.5t-11.5 -44.5q0 -23 11 -35.5t43 -12.5t46.5 13.5t14.5 37.5v59h-57zM583 924h77v-176h-77v176z
M660 675v-103h15q15 0 25 5.5t10 27.5v70h77v-61q0 -39 -10 -62.5t-25 -36t-31.5 -16.5t-29.5 -4h-32q-11 0 -21 7.5t-16 14.5q-6 -7 -16 -14.5t-21 -7.5h-38q-13 0 -28.5 4t-29 16.5t-23 36t-9.5 62.5v61h77v-70q0 -22 10 -27.5t25 -5.5h14v103h77zM1070 620h127v-620h-127
v620z" />
    <glyph glyph-name="la.aa" unicode="&#xfedf;&#xfe82;" horiz-adv-x="489" arabic-form="isolated" 
d="M60 462h127v-325h71q25 0 34.5 9t9.5 30v444h127v-466q0 -39 -12.5 -68t-34 -48t-49.5 -28.5t-59 -9.5h-214v462zM64 561q-21 0 -31.5 -4.5t-18.5 -23.5l-22 -47l-78 38l34 76q10 21 19 35.5t21 24t28.5 13.5t41.5 4h215l-6 -116h-203z" />
    <glyph glyph-name="la.aa.fina" unicode="&#xfee0;&#xfe82;" horiz-adv-x="511" arabic-form="final" 
d="M60 0v462h127v-325h60q55 0 55 56v427h127v-427q0 -29 18.5 -42.5t47.5 -13.5h16q22 0 22 -66q0 -71 -22 -71h-22q-37 0 -69 11.5t-57 49.5q-26 -38 -54.5 -49.5t-61.5 -11.5h-187zM64 561q-21 0 -31.5 -4.5t-18.5 -23.5l-22 -47l-78 38l34 76q10 21 19 35.5t21 24
t28.5 13.5t41.5 4h215l-6 -116h-203z" />
    <glyph glyph-name="la.thmz" unicode="&#xfedf;&#xfe84;" horiz-adv-x="489" arabic-form="isolated" 
d="M60 462h127v-325h71q25 0 34.5 9t9.5 30v444h127v-466q0 -39 -12.5 -68t-34 -48t-49.5 -28.5t-59 -9.5h-214v462zM225 583l-188 -94l-32 67l55 25q-35 31 -35 73t28.5 68t70.5 26h46l-5 -77h-29q-17 0 -25 -7.5t-8 -18.5q0 -10 7 -16.5t18 -6.5q10 0 27 7t40 20z" />
    <glyph glyph-name="la.thmz.fina" unicode="&#xfee0;&#xfe84;" horiz-adv-x="511" arabic-form="final" 
d="M60 0v462h127v-325h60q55 0 55 56v427h127v-427q0 -29 18.5 -42.5t47.5 -13.5h16q22 0 22 -66q0 -71 -22 -71h-22q-37 0 -69 11.5t-57 49.5q-26 -38 -54.5 -49.5t-61.5 -11.5h-187zM225 583l-188 -94l-32 67l55 25q-35 31 -35 73t28.5 68t70.5 26h46l-5 -77h-29
q-17 0 -25 -7.5t-8 -18.5q0 -10 7 -16.5t18 -6.5q10 0 27 7t40 20z" />
    <glyph glyph-name="la.bhmz" unicode="&#xfedf;&#xfe88;" horiz-adv-x="489" arabic-form="isolated" 
d="M60 620h127v-483h71q25 0 34.5 9t9.5 30v444h127v-466q0 -39 -12.5 -68t-34 -48t-49.5 -28.5t-59 -9.5h-214v620zM236 -263l-188 -94l-32 67l55 25q-35 31 -35 73t28.5 68t70.5 26h46l-5 -77h-29q-17 0 -25 -7.5t-8 -18.5q0 -10 7 -16.5t18 -6.5q10 0 27 7t40 20z" />
    <glyph glyph-name="la.bhmz.fina" unicode="&#xfee0;&#xfe88;" horiz-adv-x="511" arabic-form="final" 
d="M60 0v620h127v-483h60q55 0 55 56v427h127v-427q0 -29 18.5 -42.5t47.5 -13.5h16q22 0 22 -66q0 -71 -22 -71h-22q-37 0 -69 11.5t-57 49.5q-26 -38 -54.5 -49.5t-61.5 -11.5h-187zM236 -263l-188 -94l-32 67l55 25q-35 31 -35 73t28.5 68t70.5 26h46l-5 -77h-29
q-17 0 -25 -7.5t-8 -18.5q0 -10 7 -16.5t18 -6.5q10 0 27 7t40 20z" />
    <glyph glyph-name="la" unicode="&#xfedf;&#xfe8e;" horiz-adv-x="489" arabic-form="isolated" 
d="M60 620h127v-483h71q25 0 34.5 9t9.5 30v444h127v-466q0 -39 -12.5 -68t-34 -48t-49.5 -28.5t-59 -9.5h-214v620z" />
    <glyph glyph-name="la.fina" unicode="&#xfee0;&#xfe8e;" horiz-adv-x="511" arabic-form="final" 
d="M60 0v620h127v-483h60q55 0 55 56v427h127v-427q0 -29 18.5 -42.5t47.5 -13.5h16q22 0 22 -66q0 -71 -22 -71h-22q-37 0 -69 11.5t-57 49.5q-26 -38 -54.5 -49.5t-61.5 -11.5h-187z" />
    <glyph glyph-name="la.tvasla" unicode="&#xfedf;&#xfb51;" horiz-adv-x="489" 
d="M60 465h127v-328h71q25 0 34.5 9t9.5 30v444h127v-466q0 -39 -12.5 -68t-34 -48t-49.5 -28.5t-59 -9.5h-214v465zM53 599q35 68 67.5 97.5t69.5 29.5q33 0 57.5 -26t24.5 -67q0 -17 -6 -35t-19 -34t-34 -26t-51 -10h-131l-39 33v86l61 5v-53zM168 599q39 0 39 30
q0 11 -6.5 18.5t-18.5 7.5q-13 0 -29.5 -11t-37.5 -45h53z" />
    <glyph glyph-name="la.tvasla.fina" unicode="&#xfee0;&#xfb51;" horiz-adv-x="511" 
d="M60 0v465h127v-328h60q55 0 55 56v427h127v-427q0 -29 18.5 -42.5t47.5 -13.5h16q22 0 22 -66q0 -71 -22 -71h-22q-37 0 -69 11.5t-57 49.5q-26 -38 -54.5 -49.5t-61.5 -11.5h-187zM53 599q35 68 67.5 97.5t69.5 29.5q33 0 57.5 -26t24.5 -67q0 -17 -6 -35t-19 -34
t-34 -26t-51 -10h-131l-39 33v86l61 5v-53zM168 599q39 0 39 30q0 11 -6.5 18.5t-18.5 7.5q-13 0 -29.5 -11t-37.5 -45h53z" />
    <glyph glyph-name="lellah" unicode="&#xfedf;&#x650;&#xfee0;&#x654;&#xfeea;" horiz-adv-x="1018" 
d="M286 468h122v-275q0 -34 8 -45t41 -11h71q25 0 34.5 9t9.5 30v226h127v-187q0 -17 2.5 -31t10.5 -24.5t22 -16.5t37 -6h16q25 0 34.5 9t9.5 30v314h127v-336q0 -39 -12.5 -68t-33.5 -48t-49 -28.5t-59 -9.5h-39q-33 0 -67.5 11.5t-59.5 49.5q-25 -38 -55.5 -49.5
t-59.5 -11.5h-71q-54 0 -85 17t-48 54q-25 -25 -57.5 -31.5t-62.5 -6.5q-75 0 -112 41.5t-37 129.5q0 37 10.5 72.5t31 63.5t51.5 45t72 17h71v66zM229 275q-35 0 -46.5 -17.5t-11.5 -44.5q0 -23 11 -35.5t43 -12.5t46.5 13.5t14.5 37.5v59h-57zM583 924h77v-176h-77v176z
M660 675v-103h15q15 0 25 5.5t10 27.5v70h77v-61q0 -39 -10 -62.5t-25 -36t-31.5 -16.5t-29.5 -4h-32q-11 0 -21 7.5t-16 14.5q-6 -7 -16 -14.5t-21 -7.5h-38q-13 0 -28.5 4t-29 16.5t-23 36t-9.5 62.5v61h77v-70q0 -22 10 -27.5t25 -5.5h14v103h77z" />
    <glyph glyph-name="hmz" unicode="&#x621;" horiz-adv-x="446" arabic-form="isolated" 
d="M44 110l73 36q-26 23 -41 53t-15 65t12.5 66t34.5 54.5t52.5 37t65.5 13.5q24 0 44 -5.5t49 -22.5l-39 -121q-12 4 -24 7.5t-25 3.5q-24 0 -38 -10t-14 -30q0 -17 11 -27t30 -10q12 0 24 2.5t27 8t34.5 15t46.5 23.5l55 -115l-308 -160z" />
    <glyph glyph-name="alef.aa" unicode="&#x622;" horiz-adv-x="247" arabic-form="isolated" 
d="M60 462h127v-462h-127v462zM64 561q-21 0 -31.5 -4.5t-18.5 -23.5l-22 -47l-78 38l34 76q10 21 19 35.5t21 24t28.5 13.5t41.5 4h215l-6 -116h-203z" />
    <glyph glyph-name="alef.thmz" unicode="&#x623;" horiz-adv-x="247" arabic-form="isolated" 
d="M60 462h127v-462h-127v462zM225 583l-188 -94l-32 67l55 25q-35 31 -35 73t28.5 68t70.5 26h46l-5 -77h-29q-17 0 -25 -7.5t-8 -18.5q0 -10 7 -16.5t18 -6.5q10 0 27 7t40 20z" />
    <glyph glyph-name="vav.thmz" unicode="&#x624;" horiz-adv-x="446" arabic-form="isolated" 
d="M143 -105q67 0 96 30.5t34 74.5h-47q-52 0 -85 11t-52 33t-26.5 53.5t-7.5 72.5q0 39 11 74.5t32.5 61.5t54 41.5t75.5 15.5q34 0 64.5 -11t53.5 -35t36.5 -63t13.5 -95v-143q0 -51 -17 -98t-49 -82.5t-78 -56.5t-104 -21h-98l-6 137h99zM176 180q0 -24 10.5 -33.5
t39.5 -9.5h49v28q0 38 -12.5 52t-38.5 14q-48 0 -48 -51zM330 506l-188 -94l-32 67l55 25q-35 31 -35 73t28.5 68t70.5 26h46l-5 -77h-29q-17 0 -25 -7.5t-8 -18.5q0 -10 7 -16.5t18 -6.5q10 0 27 7t40 20z" />
    <glyph glyph-name="alef.bhmz" unicode="&#x625;" horiz-adv-x="247" arabic-form="isolated" 
d="M60 620h127v-620h-127v620zM236 -263l-188 -94l-32 67l55 25q-35 31 -35 73t28.5 68t70.5 26h46l-5 -77h-29q-17 0 -25 -7.5t-8 -18.5q0 -10 7 -16.5t18 -6.5q10 0 27 7t40 20z" />
    <glyph glyph-name="ye.thmz" unicode="&#x626;" horiz-adv-x="676" arabic-form="isolated" 
d="M352 -105q79 0 116.5 19.5t37.5 52.5t-33 33h-171v204q0 39 12 72t35 57.5t56 38t74 13.5h115l5 -137h-120q-50 0 -50 -50v-61h66q78 0 107.5 -39t29.5 -109q0 -50 -19.5 -92t-54.5 -73t-83.5 -48.5t-105.5 -17.5h-89q-112 0 -174 69t-62 189v182h126v-176q0 -29 6 -52.5
t20.5 -40t39 -25.5t61.5 -9h55zM286 374l-188 -94l-32 67l55 25q-35 31 -35 73t28.5 68t70.5 26h46l-5 -77h-29q-17 0 -25 -7.5t-8 -18.5q0 -10 7 -16.5t18 -6.5q10 0 27 7t40 20z" />
    <glyph glyph-name="alef" unicode="&#x627;" horiz-adv-x="247" arabic-form="isolated" 
d="M60 620h127v-620h-127v620z" />
    <glyph glyph-name="be" unicode="&#x628;" horiz-adv-x="760" arabic-form="isolated" 
d="M204 0q-41 0 -70.5 12.5t-48 33.5t-27 49t-8.5 59v148h126v-115q0 -12 1.5 -21.5t7.5 -16t17 -9.5t30 -3h296q33 0 44 13.5t11 42.5v104h127v-138q0 -41 -14 -71t-37 -49.5t-51.5 -29t-57.5 -9.5h-346zM452 -230h-132v121h132v-121z" />
    <glyph glyph-name="te.marbuta" unicode="&#x629;" horiz-adv-x="446" arabic-form="isolated" 
d="M44 154q0 29 7 54.5t20.5 49.5t32.5 48.5t44 51.5l-46 46l85 91q62 -60 103.5 -105t66 -82t35 -70t10.5 -68q0 -37 -14 -68.5t-38 -54t-57.5 -35t-72.5 -12.5t-71.5 11t-55.5 31t-36 48.5t-13 63.5zM275 183q0 7 -1.5 14t-6.5 16.5t-15.5 23t-29.5 32.5
q-35 -35 -43.5 -54.5t-8.5 -32.5q0 -17 12.5 -31t40.5 -14t40 14t12 32zM352 555h-121v116h121v-116zM198 555h-121v116h121v-116z" />
    <glyph glyph-name="te" unicode="&#x62a;" horiz-adv-x="760" arabic-form="isolated" 
d="M204 0q-41 0 -70.5 12.5t-48 33.5t-27 49t-8.5 59v148h126v-115q0 -12 1.5 -21.5t7.5 -16t17 -9.5t30 -3h296q33 0 44 13.5t11 42.5v104h127v-138q0 -41 -14 -71t-37 -49.5t-51.5 -29t-57.5 -9.5h-346zM517 374h-121v116h121v-116zM363 374h-121v116h121v-116z" />
    <glyph glyph-name="the" unicode="&#x62b;" horiz-adv-x="760" arabic-form="isolated" 
d="M204 0q-41 0 -70.5 12.5t-48 33.5t-27 49t-8.5 59v148h126v-115q0 -12 1.5 -21.5t7.5 -16t17 -9.5t30 -3h296q33 0 44 13.5t11 42.5v104h127v-138q0 -41 -14 -71t-37 -49.5t-51.5 -29t-57.5 -9.5h-346zM441 528h-122v115h122v-115zM517 374h-121v116h121v-116zM363 374
h-121v116h121v-116z" />
    <glyph glyph-name="jim" unicode="&#x62c;" horiz-adv-x="539" arabic-form="isolated" 
d="M352 226q-6 8 -11 13.5t-12 8.5t-17 4t-26 1h-204l6 138h220q29 0 56.5 -9t51.5 -33.5t44.5 -67.5t34.5 -111l-198 -115q-43 -25 -69 -49t-40 -46.5t-18.5 -44t-4.5 -42.5q0 -54 32.5 -87.5t110.5 -33.5h182l-6 -137h-176q-70 0 -121 19t-84 52.5t-49 78.5t-16 97
q0 48 10.5 88.5t34.5 77t63 70.5t96 67zM440 -153h-132v121h132v-121z" />
    <glyph glyph-name="him" unicode="&#x62d;" horiz-adv-x="539" arabic-form="isolated" 
d="M352 226q-6 8 -11 13.5t-12 8.5t-17 4t-26 1h-204l6 138h220q29 0 56.5 -9t51.5 -33.5t44.5 -67.5t34.5 -111l-198 -115q-43 -25 -69 -49t-40 -46.5t-18.5 -44t-4.5 -42.5q0 -54 32.5 -87.5t110.5 -33.5h182l-6 -137h-176q-70 0 -121 19t-84 52.5t-49 78.5t-16 97
q0 48 10.5 88.5t34.5 77t63 70.5t96 67z" />
    <glyph glyph-name="khe" unicode="&#x62e;" horiz-adv-x="539" arabic-form="isolated" 
d="M352 226q-6 8 -11 13.5t-12 8.5t-17 4t-26 1h-204l6 138h220q29 0 56.5 -9t51.5 -33.5t44.5 -67.5t34.5 -111l-198 -115q-43 -25 -69 -49t-40 -46.5t-18.5 -44t-4.5 -42.5q0 -54 32.5 -87.5t110.5 -33.5h182l-6 -137h-176q-70 0 -121 19t-84 52.5t-49 78.5t-16 97
q0 48 10.5 88.5t34.5 77t63 70.5t96 67zM324 490h-132v121h132v-121z" />
    <glyph glyph-name="dal" unicode="&#x62f;" horiz-adv-x="495" arabic-form="isolated" 
d="M396 258q28 -32 41.5 -64t13.5 -62q0 -27 -9.5 -51t-29 -42t-48.5 -28.5t-67 -10.5h-259l-5 137h242q26 0 26 19q0 10 -10 20l-159 182l99 93z" />
    <glyph glyph-name="zal" unicode="&#x630;" horiz-adv-x="495" arabic-form="isolated" 
d="M396 258q28 -32 41.5 -64t13.5 -62q0 -27 -9.5 -51t-29 -42t-48.5 -28.5t-67 -10.5h-259l-5 137h242q26 0 26 19q0 10 -10 20l-159 182l99 93zM286 501h-132v121h132v-121z" />
    <glyph glyph-name="re" unicode="&#x631;" horiz-adv-x="254" arabic-form="isolated" 
d="M204 16q0 -51 -18.5 -98t-51 -82.5t-77 -56.5t-96.5 -21h-66l-5 137h38q42 0 70.5 10.5t46 27.5t25 38.5t7.5 44.5v281h127v-281v0z" />
    <glyph glyph-name="ze" unicode="&#x632;" horiz-adv-x="254" arabic-form="isolated" 
d="M204 16q0 -51 -18.5 -98t-51 -82.5t-77 -56.5t-96.5 -21h-66l-5 137h38q42 0 70.5 10.5t46 27.5t25 38.5t7.5 44.5v281h127v-281v0zM204 407h-132v121h132v-121z" />
    <glyph glyph-name="sin" unicode="&#x633;" horiz-adv-x="1122" arabic-form="isolated" 
d="M847 193q0 -29 14.5 -42.5t35.5 -13.5q49 0 49 56v104h126v-115q0 -91 -43.5 -136.5t-126.5 -45.5q-33 0 -64.5 11.5t-56.5 49.5q-25 -38 -56 -49.5t-60 -11.5q-47 0 -71 26v-10q0 -51 -17 -98t-49 -82.5t-78 -56.5t-104 -21h-66q-112 0 -174 69t-62 189v182h126v-176
q0 -29 6 -52.5t20.5 -40t39 -25.5t61.5 -9h44q39 0 64.5 10.5t40.5 29t21 42.5t6 51v269h126v-104q0 -29 18 -42.5t43 -13.5q33 0 47 13.5t14 42.5v104h126v-104z" />
    <glyph glyph-name="shin" unicode="&#x634;" horiz-adv-x="1122" arabic-form="isolated" 
d="M847 193q0 -29 14.5 -42.5t35.5 -13.5q49 0 49 56v104h126v-115q0 -91 -43.5 -136.5t-126.5 -45.5q-33 0 -64.5 11.5t-56.5 49.5q-25 -38 -56 -49.5t-60 -11.5q-47 0 -71 26v-10q0 -51 -17 -98t-49 -82.5t-78 -56.5t-104 -21h-66q-112 0 -174 69t-62 189v182h126v-176
q0 -29 6 -52.5t20.5 -40t39 -25.5t61.5 -9h44q39 0 64.5 10.5t40.5 29t21 42.5t6 51v269h126v-104q0 -29 18 -42.5t43 -13.5q33 0 47 13.5t14 42.5v104h126v-104zM842 561h-122v115h122v-115zM918 407h-121v116h121v-116zM764 407h-121v116h121v-116z" />
    <glyph glyph-name="sad" unicode="&#x635;" horiz-adv-x="1149" arabic-form="isolated" 
d="M979 187q0 8 -3 17.5t-10.5 18t-19 14t-27.5 5.5q-25 0 -55 -23t-72 -82h138q25 0 37 14.5t12 35.5zM665 137q70 124 134.5 183.5t130.5 59.5q41 0 73.5 -14.5t55 -40.5t34.5 -61.5t12 -76.5q0 -35 -10.5 -68.5t-32.5 -60t-56.5 -42.5t-81.5 -16h-242q-25 0 -49.5 7.5
t-38.5 25.5v-17q0 -51 -17 -98t-49 -82.5t-78 -56.5t-104 -21h-66q-112 0 -174 69t-62 189v182h126v-176q0 -29 6 -52.5t20.5 -40t39 -25.5t61.5 -9h44q39 0 64.5 10.5t40.5 29t21 42.5t6 51v269h126v-77q0 -36 12.5 -59.5t53.5 -23.5z" />
    <glyph glyph-name="zad" unicode="&#x636;" horiz-adv-x="1149" arabic-form="isolated" 
d="M979 187q0 8 -3 17.5t-10.5 18t-19 14t-27.5 5.5q-25 0 -55 -23t-72 -82h138q25 0 37 14.5t12 35.5zM665 137q70 124 134.5 183.5t130.5 59.5q41 0 73.5 -14.5t55 -40.5t34.5 -61.5t12 -76.5q0 -35 -10.5 -68.5t-32.5 -60t-56.5 -42.5t-81.5 -16h-242q-25 0 -49.5 7.5
t-38.5 25.5v-17q0 -51 -17 -98t-49 -82.5t-78 -56.5t-104 -21h-66q-112 0 -174 69t-62 189v182h126v-176q0 -29 6 -52.5t20.5 -40t39 -25.5t61.5 -9h44q39 0 64.5 10.5t40.5 29t21 42.5t6 51v269h126v-77q0 -36 12.5 -59.5t53.5 -23.5zM979 484h-132v121h132v-121z" />
    <glyph glyph-name="ta" unicode="&#x637;" horiz-adv-x="621" arabic-form="isolated" 
d="M127 620h126v-257q0 -21 -0.5 -39t-4.5 -37q38 48 75 70.5t79 22.5q41 0 73.5 -14.5t55 -40.5t34.5 -61.5t12 -76.5q0 -35 -10.5 -68.5t-32.5 -60t-56.5 -42.5t-81.5 -16h-352l-6 137h89v483zM451 187q0 8 -3 17.5t-10.5 18t-19 14t-27.5 5.5q-12 0 -24.5 -4.5t-28 -16.5
t-36 -32.5t-49.5 -51.5h149q25 0 37 14.5t12 35.5z" />
    <glyph glyph-name="za" unicode="&#x638;" horiz-adv-x="621" arabic-form="isolated" 
d="M127 620h126v-257q0 -21 -0.5 -39t-4.5 -37q38 48 75 70.5t79 22.5q41 0 73.5 -14.5t55 -40.5t34.5 -61.5t12 -76.5q0 -35 -10.5 -68.5t-32.5 -60t-56.5 -42.5t-81.5 -16h-352l-6 137h89v483zM451 187q0 8 -3 17.5t-10.5 18t-19 14t-27.5 5.5q-12 0 -24.5 -4.5t-28 -16.5
t-36 -32.5t-49.5 -51.5h149q25 0 37 14.5t12 35.5zM484 484h-132v121h132v-121z" />
    <glyph glyph-name="ein" unicode="&#x639;" horiz-adv-x="501" arabic-form="isolated" 
d="M148 66q-29 29 -39 65t-10 67q0 41 13.5 76t38.5 61t59.5 41t75.5 15q37 0 71.5 -12.5t71.5 -37.5l-55 -110q-29 13 -48.5 17.5t-39.5 4.5q-28 0 -44 -17t-16 -40q0 -32 21.5 -45.5t54.5 -13.5h144l-6 -137h-127q-35 0 -61.5 -10.5t-44.5 -28.5t-27.5 -42t-9.5 -51
q0 -23 7 -44t23.5 -37t44 -25.5t68.5 -9.5h166l-6 -137h-160q-70 0 -120.5 18.5t-83.5 50.5t-49 76.5t-16 96.5q0 62 23 114.5t81 94.5z" />
    <glyph glyph-name="qein" unicode="&#x63a;" horiz-adv-x="501" arabic-form="isolated" 
d="M148 66q-29 29 -39 65t-10 67q0 41 13.5 76t38.5 61t59.5 41t75.5 15q37 0 71.5 -12.5t71.5 -37.5l-55 -110q-29 13 -48.5 17.5t-39.5 4.5q-28 0 -44 -17t-16 -40q0 -32 21.5 -45.5t54.5 -13.5h144l-6 -137h-127q-35 0 -61.5 -10.5t-44.5 -28.5t-27.5 -42t-9.5 -51
q0 -23 7 -44t23.5 -37t44 -25.5t68.5 -9.5h166l-6 -137h-160q-70 0 -120.5 18.5t-83.5 50.5t-49 76.5t-16 96.5q0 62 23 114.5t81 94.5zM341 484h-132v121h132v-121z" />
    <glyph glyph-name="fe" unicode="&#x641;" horiz-adv-x="843" arabic-form="isolated" 
d="M452 269q0 27 10.5 55.5t31 51.5t51 38t71.5 15q39 0 72 -10t56 -33t36 -61t13 -94v-55q0 -83 -46.5 -129.5t-146.5 -46.5h-396q-41 0 -70.5 12.5t-48 33.5t-27 49t-8.5 59v148h126v-115q0 -12 1.5 -21.5t7.5 -16t17 -9.5t30 -3h148q31 0 50.5 -0.5t33.5 -2t25.5 -4.5
t28.5 -9q-41 25 -53.5 60t-12.5 88zM567 242q0 -10 3 -19.5t13 -20.5t29.5 -24t51.5 -30q5 8 6 23.5t1 26.5v22q0 14 -2.5 27t-9 22.5t-17.5 15.5t-28 6q-27 0 -37 -16t-10 -33zM688 506h-132v121h132v-121z" />
    <glyph glyph-name="qaf" unicode="&#x642;" horiz-adv-x="699" arabic-form="isolated" 
d="M396 -105q67 0 96 30.5t34 74.5h-47q-52 0 -85 11t-52 33t-26.5 53.5t-7.5 72.5q0 39 11 74.5t32.5 61.5t54 41.5t75.5 15.5q34 0 64.5 -11t53.5 -35t36.5 -63t13.5 -95v-143q0 -51 -17 -98t-49 -82.5t-78 -56.5t-103 -21h-122q-112 0 -174 69t-62 189v182h126v-176
q0 -29 6 -52.5t20.5 -40t39 -25.5t61.5 -9h99zM429 180q0 -24 10.5 -33.5t39.5 -9.5h49v28q0 38 -12.5 52t-38.5 14q-48 0 -48 -51zM616 451h-121v116h121v-116zM462 451h-121v116h121v-116z" />
    <glyph glyph-name="kaf.arab" unicode="&#x643;" horiz-adv-x="753" arabic-form="isolated" 
d="M391 209v66q0 12 -3 17t-16 5h-129v138q0 58 28.5 89t86.5 31h66l6 -93h-66q-34 0 -34 -38v-33h83q19 0 31.5 -6.5t20 -17.5t11 -25t3.5 -29v-104h-88zM204 0q-41 0 -70.5 12.5t-48 33.5t-27 49t-8.5 59v148h126v-115q0 -12 1.5 -21.5t7.5 -16t17 -9.5t30 -3h280
q55 0 55 56v427h126v-438q0 -91 -43.5 -136.5t-126.5 -45.5h-319z" />
    <glyph glyph-name="lam" unicode="&#x644;" horiz-adv-x="659" arabic-form="isolated" 
d="M599 28q0 -58 -17.5 -107.5t-50.5 -85.5t-80 -56.5t-105 -20.5h-66q-112 0 -174 69t-62 189v182h126v-176q0 -29 6 -52.5t20.5 -40t39 -25.5t61.5 -9h44q39 0 64.5 10.5t40.5 29t21 42.5t6 51v592h126v-592z" />
    <glyph glyph-name="mim" unicode="&#x645;" horiz-adv-x="628" arabic-form="isolated" 
d="M402 0q-71 0 -115 36.5t-44 106.5v44q0 50 16 66h-11q-37 0 -54.5 -13t-17.5 -42v-440h-126v446q0 35 12.5 67.5t36.5 58t60 40.5t84 15h181q43 0 72.5 -11.5t47.5 -31.5t26 -47t8 -58v-89q0 -39 -14.5 -67t-38.5 -46t-56 -26.5t-67 -8.5zM411 137q26 0 36 11t10 28v28
q0 20 -9.5 32t-32.5 12h-11q-22 0 -31 -12t-9 -32v-28q0 -17 9 -28t38 -11z" />
    <glyph glyph-name="nun" unicode="&#x646;" horiz-adv-x="649" arabic-form="isolated" 
d="M599 28q0 -58 -17.5 -107.5t-50.5 -85.5t-80 -56.5t-105 -20.5h-66q-112 0 -174 69t-62 189v182h126v-176q0 -29 6 -52.5t20.5 -40t39 -25.5t61.5 -9h44q39 0 64.5 10.5t40.5 29t21 42.5t6 51v269h126v-269zM368 308h-132v121h132v-121z" />
    <glyph glyph-name="he" unicode="&#x647;" horiz-adv-x="446" arabic-form="isolated" 
d="M44 154q0 29 7 54.5t20.5 49.5t32.5 48.5t44 51.5l-46 46l85 91q62 -60 103.5 -105t66 -82t35 -70t10.5 -68q0 -37 -14 -68.5t-38 -54t-57.5 -35t-72.5 -12.5t-71.5 11t-55.5 31t-36 48.5t-13 63.5zM275 183q0 7 -1.5 14t-6.5 16.5t-15.5 23t-29.5 32.5
q-35 -35 -43.5 -54.5t-8.5 -32.5q0 -17 12.5 -31t40.5 -14t40 14t12 32z" />
    <glyph glyph-name="vav" unicode="&#x648;" horiz-adv-x="446" arabic-form="isolated" 
d="M143 -105q67 0 96 30.5t34 74.5h-47q-52 0 -85 11t-52 33t-26.5 53.5t-7.5 72.5q0 39 11 74.5t32.5 61.5t54 41.5t75.5 15.5q34 0 64.5 -11t53.5 -35t36.5 -63t13.5 -95v-143q0 -51 -17 -98t-49 -82.5t-78 -56.5t-104 -21h-98l-6 137h99zM176 180q0 -24 10.5 -33.5
t39.5 -9.5h49v28q0 38 -12.5 52t-38.5 14q-48 0 -48 -51z" />
    <glyph glyph-name="alef.maksura" unicode="&#x649;" horiz-adv-x="676" arabic-form="isolated" 
d="M352 -105q79 0 116.5 19.5t37.5 52.5t-33 33h-171v204q0 39 12 72t35 57.5t56 38t74 13.5h115l5 -137h-120q-50 0 -50 -50v-61h66q78 0 107.5 -39t29.5 -109q0 -50 -19.5 -92t-54.5 -73t-83.5 -48.5t-105.5 -17.5h-89q-112 0 -174 69t-62 189v182h126v-176q0 -29 6 -52.5
t20.5 -40t39 -25.5t61.5 -9h55z" />
    <glyph glyph-name="ye.arab" unicode="&#x64a;" horiz-adv-x="676" arabic-form="isolated" 
d="M352 -105q79 0 116.5 19.5t37.5 52.5t-33 33h-171v204q0 39 12 72t35 57.5t56 38t74 13.5h115l5 -137h-120q-50 0 -50 -50v-61h66q78 0 107.5 -39t29.5 -109q0 -50 -19.5 -92t-54.5 -73t-83.5 -48.5t-105.5 -17.5h-89q-112 0 -174 69t-62 189v182h126v-176q0 -29 6 -52.5
t20.5 -40t39 -25.5t61.5 -9h55zM467 -445h-121v116h121v-116zM313 -445h-121v116h121v-116z" />
    <glyph glyph-name="alef.vasla" unicode="&#x671;" horiz-adv-x="247" arabic-form="isolated" 
d="M60 465h127v-465h-127v465zM53 599q35 68 67.5 97.5t69.5 29.5q33 0 57.5 -26t24.5 -67q0 -17 -6 -35t-19 -34t-34 -26t-51 -10h-131l-39 33v86l61 5v-53zM168 599q39 0 39 30q0 11 -6.5 18.5t-18.5 7.5q-13 0 -29.5 -11t-37.5 -45h53z" />
    <glyph glyph-name="pe" unicode="&#x67e;" horiz-adv-x="760" arabic-form="isolated" 
d="M204 0q-41 0 -70.5 12.5t-48 33.5t-27 49t-8.5 59v148h126v-115q0 -12 1.5 -21.5t7.5 -16t17 -9.5t30 -3h296q33 0 44 13.5t11 42.5v104h127v-138q0 -41 -14 -71t-37 -49.5t-51.5 -29t-57.5 -9.5h-346zM447 -379h-122v116h122v-116zM523 -225h-121v116h121v-116z
M369 -225h-121v116h121v-116z" />
    <glyph glyph-name="che" unicode="&#x686;" horiz-adv-x="539" arabic-form="isolated" 
d="M352 226q-6 8 -11 13.5t-12 8.5t-17 4t-26 1h-204l6 138h220q29 0 56.5 -9t51.5 -33.5t44.5 -67.5t34.5 -111l-198 -115q-43 -25 -69 -49t-40 -46.5t-18.5 -44t-4.5 -42.5q0 -54 32.5 -87.5t110.5 -33.5h182l-6 -137h-176q-70 0 -121 19t-84 52.5t-49 78.5t-16 97
q0 48 10.5 88.5t34.5 77t63 70.5t96 67zM437.849 -208.493h-103.697v98.5967h103.697v-98.5967zM502.446 -77.5977h-102.847v98.5977h102.847v-98.5977zM371.551 -77.5977h-102.848v98.5977h102.848v-98.5977z" />
    <glyph glyph-name="re.bv.fina" unicode="&#x695;" horiz-adv-x="275" 
d="M198 16q0 -51 -17.5 -98t-49 -82.5t-75 -56.5t-95.5 -21h-66l-5 137h38q42 0 70.5 10.5t46 27.5t25 38.5t7.5 44.5v281h127v-104q0 -29 17.5 -42.5t42.5 -13.5h11q22 0 22 -66q0 -71 -22 -71h-11q-17 0 -34.5 5.5t-31.5 22.5v-12zM160 -279l60 -39l-88 -176h-66l-88 176
l60 39l61 -127z" />
    <glyph glyph-name="je" unicode="&#x698;" horiz-adv-x="254" arabic-form="isolated" 
d="M204 16q0 -51 -18.5 -98t-51 -82.5t-77 -56.5t-96.5 -21h-66l-5 137h38q42 0 70.5 10.5t46 27.5t25 38.5t7.5 44.5v281h127v-281v0zM193 561h-122v115h122v-115zM269 407h-121v116h121v-116zM115 407h-121v116h121v-116z" />
    <glyph glyph-name="veh" unicode="&#x6a4;" horiz-adv-x="843" arabic-form="isolated" 
d="M452 269q0 27 10.5 55.5t31 51.5t51 38t71.5 15q39 0 72 -10t56 -33t36 -61t13 -94v-55q0 -83 -46.5 -129.5t-146.5 -46.5h-396q-41 0 -70.5 12.5t-48 33.5t-27 49t-8.5 59v148h126v-115q0 -12 1.5 -21.5t7.5 -16t17 -9.5t30 -3h148q31 0 50.5 -0.5t33.5 -2t25.5 -4.5
t28.5 -9q-41 25 -53.5 60t-12.5 88zM567 242q0 -10 3 -19.5t13 -20.5t29.5 -24t51.5 -30q5 8 6 23.5t1 26.5v22q0 14 -2.5 27t-9 22.5t-17.5 15.5t-28 6q-27 0 -37 -16t-10 -33zM683 660h-122v115h122v-115zM759 506h-121v116h121v-116zM605 506h-121v116h121v-116z" />
    <glyph glyph-name="kaf" unicode="&#x6a9;" horiz-adv-x="776" arabic-form="isolated" 
d="M561 137q17 0 22.5 7t5.5 15q0 13 -4.5 23t-17.5 22l-171 170v143l331 121l27 -126l-236 -83l126 -127q24 -25 40 -46t25.5 -40.5t13.5 -38.5t4 -40q0 -37 -12 -63t-32 -42.5t-47 -24t-58 -7.5h-374q-41 0 -70.5 12.5t-48 33.5t-27 49t-8.5 59v148h126v-115
q0 -12 1.5 -21.5t7.5 -16t17 -9.5t30 -3h329z" />
    <glyph glyph-name="gaf" unicode="&#x6af;" horiz-adv-x="776" arabic-form="isolated" 
d="M385 682l302 110l17 -88l-313 -116zM561 137q17 0 22.5 7t5.5 15q0 13 -4.5 23t-17.5 22l-171 170v143l331 121l27 -126l-236 -83l126 -127q24 -25 40 -46t25.5 -40.5t13.5 -38.5t4 -40q0 -37 -12 -63t-32 -42.5t-47 -24t-58 -7.5h-374q-41 0 -70.5 12.5t-48 33.5t-27 49
t-8.5 59v148h126v-115q0 -12 1.5 -21.5t7.5 -16t17 -9.5t30 -3h329z" />
    <glyph glyph-name="lam.tv.init" unicode="&#x6b5;" horiz-adv-x="264" 
d="M22 137q29 0 42 13.5t13 42.5v269h127v-280q0 -91 -44 -136.5t-127 -45.5h-33q-13 0 -17.5 16.5t-4.5 49.5q0 38 4.5 54.5t17.5 16.5h22zM198 732l60 -39l-88 -176h-66l-88 176l60 39l61 -127z" />
    <glyph glyph-name="lam.tvmedi" unicode="&#x6b5;" horiz-adv-x="286" 
d="M22 137q29 0 42 13.5t13 42.5v269h127v-269q0 -29 18 -42.5t47 -13.5h17q22 0 22 -66q0 -71 -22 -71h-22q-37 0 -69.5 11.5t-57.5 49.5q-24 -38 -53 -49.5t-62 -11.5h-22q-13 0 -17.5 16.5t-4.5 49.5q0 38 4.5 54.5t17.5 16.5h22zM198 732l60 -39l-88 -176h-66l-88 176
l60 39l61 -127z" />
    <glyph glyph-name="lam.tv.fina" unicode="&#x6b5;" horiz-adv-x="671" 
d="M660 0q-17 0 -34.5 5.5t-31.5 22.5v-6q0 -56 -17 -104t-49.5 -83.5t-78.5 -56t-103 -20.5h-66q-112 0 -174 69t-62 189v182h126v-176q0 -29 6 -52.5t20.5 -40t39 -25.5t61.5 -9h44q39 0 64.5 10.5t40.5 29t21 42.5t6 51v592h126v-427q0 -29 18 -42.5t43 -13.5h11
q22 0 22 -66q0 -71 -22 -71h-11zM358 622l60 -39l-88 -176h-66l-88 176l60 39l61 -127z" />
    <glyph glyph-name="he.thmz" unicode="&#x6c0;" horiz-adv-x="446" arabic-form="isolated" 
d="M176 561q-50 0 -72 22t-22 55q0 29 16 60.5t45 77.5h126l-5 -89h-88q-8 -11 -10.5 -16t-2.5 -10q0 -12 19 -12h184l-3 -88h-187zM44 154q0 29 7 54.5t20.5 49.5t32.5 48.5t44 51.5l-46 46l85 91q62 -60 103.5 -105t66 -82t35 -70t10.5 -68q0 -37 -14 -68.5t-38 -54
t-57.5 -35t-72.5 -12.5t-71.5 11t-55.5 31t-36 48.5t-13 63.5zM275 183q0 7 -1.5 14t-6.5 16.5t-15.5 23t-29.5 32.5q-35 -35 -43.5 -54.5t-8.5 -32.5q0 -17 12.5 -31t40.5 -14t40 14t12 32z" />
    <glyph glyph-name="he.thmz.goal.fina" unicode="&#x6c2;" horiz-adv-x="468" 
d="M219 165q30 0 43 13.5t13 37.5v59h-46q-35 0 -46.5 -17.5t-11.5 -44.5q0 -23 10 -35.5t38 -12.5zM397 187q0 -50 44 -50h27q13 0 17.5 -16t4.5 -50q0 -37 -4.5 -54t-17.5 -17h-27q-54 0 -85 17t-48 54q-25 -25 -55.5 -31.5t-59.5 -6.5q-70 0 -106.5 44t-36.5 127
q0 37 10.5 72.5t31 63.5t51.5 45t72 17h60v66h122v-281zM364 627l-188 -94l-32 67l55 25q-35 31 -35 73t28.5 68t70.5 26h46l-5 -77h-29q-17 0 -25 -7.5t-8 -18.5q0 -10 7 -16.5t18 -6.5q10 0 27 7t40 20z" />
    <glyph glyph-name="vav.tv" unicode="&#x6c6;" horiz-adv-x="446" arabic-form="isolated" 
d="M143 -105q67 0 96 30.5t34 74.5h-47q-52 0 -85 11t-52 33t-26.5 53.5t-7.5 72.5q0 39 11 74.5t32.5 61.5t54 41.5t75.5 15.5q34 0 64.5 -11t53.5 -35t36.5 -63t13.5 -95v-143q0 -51 -17 -98t-49 -82.5t-78 -56.5t-104 -21h-98l-6 137h99zM176 180q0 -24 10.5 -33.5
t39.5 -9.5h49v28q0 38 -12.5 52t-38.5 14q-48 0 -48 -51zM281 633l60 -39l-88 -176h-66l-88 176l60 39l61 -127z" />
    <glyph glyph-name="vav.t2p.fina" unicode="&#x6ca;" horiz-adv-x="468" 
d="M143 -105q67 0 96 30.5t34 74.5h-47q-52 0 -85 11t-52 33t-26.5 53.5t-7.5 72.5q0 39 11 74.5t32.5 61.5t54 41.5t75.5 15.5q34 0 64.5 -11t53.5 -35t36.5 -63t13.5 -95v-22h72q22 0 22 -66q0 -71 -22 -71h-73q-3 -49 -21 -93t-49.5 -77t-76.5 -52.5t-100 -19.5h-98
l-6 137h99zM176 180q0 -24 10.5 -33.5t39.5 -9.5h49v28q0 38 -12.5 52t-38.5 14q-48 0 -48 -51zM363 451h-121v116h121v-116zM209 451h-121v116h121v-116z" />
    <glyph glyph-name="ye" unicode="&#x6cc;" horiz-adv-x="676" arabic-form="isolated" 
d="M352 -105q79 0 116.5 19.5t37.5 52.5t-33 33h-171v204q0 39 12 72t35 57.5t56 38t74 13.5h115l5 -137h-120q-50 0 -50 -50v-61h66q78 0 107.5 -39t29.5 -109q0 -50 -19.5 -92t-54.5 -73t-83.5 -48.5t-105.5 -17.5h-89q-112 0 -174 69t-62 189v182h126v-176q0 -29 6 -52.5
t20.5 -40t39 -25.5t61.5 -9h55z" />
    <glyph glyph-name="ye.tv.init" unicode="&#x6ce;" horiz-adv-x="325" 
d="M94 137q29 0 41.5 13.5t12.5 42.5v104h127v-115q0 -91 -43.5 -136.5t-126.5 -45.5h-105q-13 0 -17.5 16.5t-4.5 49.5q0 38 4.5 54.5t17.5 16.5h94zM269 -225h-121v116h121v-116zM115 -225h-121v116h121v-116zM204 600l60 -39l-88 -176h-66l-88 176l60 39l61 -127z" />
    <glyph glyph-name="ye.tv.medi" unicode="&#x6ce;" horiz-adv-x="335" 
d="M66 137q29 0 42 13.5t13 42.5v104h127v-104q0 -29 18 -42.5t47 -13.5h22q23 0 23 -66q0 -71 -23 -71h-27q-38 0 -69.5 11.5t-56.5 49.5q-26 -38 -54.5 -49.5t-61.5 -11.5h-66q-13 0 -17.5 16.5t-4.5 49.5q0 38 4.5 54.5t17.5 16.5h66zM307 -225h-121v116h121v-116z
M153 -225h-121v116h121v-116zM243 600l60 -39l-88 -176h-66l-88 176l60 39l61 -127z" />
    <glyph glyph-name="ye.tv.fina" unicode="&#x6ce;" horiz-adv-x="682" 
d="M374 -105q39 0 64.5 3.5t40.5 10.5t21 18.5t6 28.5t-9.5 30.5t-34.5 13.5h-127l6 137h341q22 0 22 -66q0 -71 -22 -71h-77q22 -15 22 -66q0 -27 -12.5 -58t-40 -57t-72.5 -43.5t-111 -17.5h-111q-112 0 -174 69t-62 189v182h126v-176q0 -29 6 -52.5t20.5 -40t39 -25.5
t61.5 -9h77zM358 424l60 -39l-88 -176h-66l-88 176l60 39l61 -127z" />
    <glyph glyph-name="ae.fina" unicode="&#x6d5;" horiz-adv-x="468" 
d="M219 165q30 0 43 13.5t13 37.5v59h-46q-35 0 -46.5 -17.5t-11.5 -44.5q0 -23 10 -35.5t38 -12.5zM397 187q0 -50 44 -50h27q13 0 17.5 -16t4.5 -50q0 -37 -4.5 -54t-17.5 -17h-27q-54 0 -85 17t-48 54q-25 -25 -55.5 -31.5t-59.5 -6.5q-70 0 -106.5 44t-36.5 127
q0 37 10.5 72.5t31 63.5t51.5 45t72 17h60v66h122v-281z" />
    <glyph glyph-name="alef.vasla.fina" unicode="&#x671;" horiz-adv-x="258" arabic-form="final" 
d="M203 0q-29 0 -55 7.5t-45.5 25.5t-31 47.5t-11.5 73.5v311h127v-278q0 -50 44 -50h27q22 0 22 -66q0 -71 -22 -71h-55zM53 599q35 68 67.5 97.5t69.5 29.5q33 0 57.5 -26t24.5 -67q0 -17 -6 -35t-19 -34t-34 -26t-51 -10h-131l-39 33v86l61 5v-53zM168 599q39 0 39 30
q0 11 -6.5 18.5t-18.5 7.5q-13 0 -29.5 -11t-37.5 -45h53z" />
    <glyph glyph-name="pe.fina" unicode="&#x67e;" horiz-adv-x="798" arabic-form="final" 
d="M528 137q29 0 42 13.5t13 42.5v104h127v-104q0 -29 18.5 -42.5t47.5 -13.5h22q13 0 17.5 -16t4.5 -50q0 -37 -4.5 -54t-17.5 -17h-27q-38 0 -70 11.5t-57 49.5q-25 -38 -54 -49.5t-62 -11.5h-324q-41 0 -70.5 12.5t-48 33.5t-27 49t-8.5 59v148h126v-115q0 -12 1.5 -21.5
t7.5 -16t17 -9.5t30 -3h296zM447 -379h-122v116h122v-116zM523 -225h-121v116h121v-116zM369 -225h-121v116h121v-116z" />
    <glyph glyph-name="pe.init" unicode="&#x67e;" horiz-adv-x="325" arabic-form="initial" 
d="M94 137q29 0 41.5 13.5t12.5 42.5v104h127v-115q0 -91 -43.5 -136.5t-126.5 -45.5h-105q-13 0 -17.5 16.5t-4.5 49.5q0 38 4.5 54.5t17.5 16.5h94zM193 -379h-122v116h122v-116zM269 -225h-121v116h121v-116zM115 -225h-121v116h121v-116z" />
    <glyph glyph-name="pe.medi" unicode="&#x67e;" horiz-adv-x="335" arabic-form="medial" 
d="M66 137q29 0 42 13.5t13 42.5v104h127v-104q0 -29 18 -42.5t47 -13.5h22q23 0 23 -66q0 -71 -23 -71h-27q-38 0 -69.5 11.5t-56.5 49.5q-26 -38 -54.5 -49.5t-61.5 -11.5h-66q-13 0 -17.5 16.5t-4.5 49.5q0 38 4.5 54.5t17.5 16.5h66zM215 -379h-122v116h122v-116z
M291 -225h-121v116h121v-116zM137 -225h-121v116h121v-116z" />
    <glyph glyph-name="veh.fina" unicode="&#x6a4;" horiz-adv-x="864" arabic-form="final" 
d="M620 286q-23 0 -38 -15t-15 -40q0 -20 13 -40t42 -37q29 17 39 37t10 40q0 25 -14.5 40t-36.5 15zM627 424q42 0 73 -15t51.5 -39t31 -53.5t10.5 -58.5q0 -41 -11 -68.5t-28 -52.5h110q13 0 17.5 -16t4.5 -50q0 -37 -4.5 -54t-17.5 -17h-93q-46 0 -82.5 4.5t-55.5 17.5
q-15 -8 -35 -12.5t-42 -6.5t-42 -2.5t-35 -0.5h-275q-41 0 -70.5 12.5t-48 33.5t-27 49t-8.5 59v148h126v-115q0 -12 1.5 -21.5t7.5 -16t17 -9.5t30 -3h253q-25 34 -32 60.5t-7 55.5q0 33 13 64t36.5 54.5t57 38t74.5 14.5zM683 644h-122v115h122v-115zM759 490h-121v116
h121v-116zM605 490h-121v116h121v-116z" />
    <glyph glyph-name="veh.init" unicode="&#x6a4;" horiz-adv-x="463" arabic-form="initial" 
d="M38 137q19 0 31.5 -0.5t23 -2.5t20.5 -5t24 -8q-41 25 -53.5 60t-12.5 88q0 27 10.5 55.5t31.5 51.5t52 38t72 15q39 0 71.5 -10t55.5 -33t36 -61t13 -94v-55q0 -83 -46.5 -129.5t-146.5 -46.5h-220q-13 0 -17.5 16.5t-4.5 49.5q0 38 4.5 54.5t17.5 16.5h38zM234 291
q-27 0 -37 -16t-10 -33q0 -10 3 -19.5t13 -20.5t29.5 -24t51.5 -30q5 8 6 23.5t1 26.5v22q0 14 -2.5 27t-9 22.5t-17.5 15.5t-28 6zM298 655h-122v115h122v-115zM374 501h-121v116h121v-116zM220 501h-121v116h121v-116z" />
    <glyph glyph-name="veh.medi" unicode="&#x6a4;" horiz-adv-x="490" arabic-form="medial" 
d="M110 137q-25 34 -32 60.5t-7 55.5q0 33 13 64t37 54.5t57.5 38t74.5 14.5t72 -15t51.5 -39t31 -53.5t10.5 -58.5q0 -41 -10.5 -68.5t-27.5 -52.5h110q22 0 22 -66q0 -71 -22 -71h-94q-46 0 -82 4.5t-56 17.5q-14 -8 -34.5 -12.5t-42 -6.5t-42 -2.5t-34.5 -0.5h-105
q-13 0 -17.5 16.5t-4.5 49.5q0 38 4.5 54.5t17.5 16.5h110zM245 286q-23 0 -37.5 -15t-14.5 -40q0 -20 13 -40t42 -37q29 17 39 37t10 40q0 25 -14.5 40t-37.5 15zM309 644h-122v115h122v-115zM385 490h-121v116h121v-116zM231 490h-121v116h121v-116z" />
    <glyph glyph-name="che.fina" unicode="&#x686;" horiz-adv-x="566" arabic-form="final" 
d="M352 226q-6 8 -11 13.5t-12 8.5t-17 4t-26 1h-204l6 138h220q29 0 56.5 -9t51.5 -33.5t44.5 -67.5t34.5 -111l-40 -23q12 -8 27.5 -9t34.5 -1h49q13 0 17.5 -16t4.5 -50q0 -37 -4.5 -54t-17.5 -17h-54q-34 0 -58 7t-41 20t-28 30.5t-18 38.5l-70 -41q-43 -25 -69 -49
t-40 -46.5t-18.5 -44t-4.5 -42.5q0 -54 32.5 -87.5t110.5 -33.5h182l-6 -137h-176q-70 0 -121 19t-84 52.5t-49 78.5t-16 97q0 48 10.5 88.5t34.5 77t63 70.5t96 67zM383.701 -210.003h-85.4023v81.2012h85.4023v-81.2012zM436.901 -102.201h-84.7012v81.2012h84.7012
v-81.2012zM329.1 -102.201h-84.7012v81.2012h84.7012v-81.2012z" />
    <glyph glyph-name="che.init" unicode="&#x686;" horiz-adv-x="522" arabic-form="initial" 
d="M286 55q-29 -17 -56 -27.5t-57 -16.5t-65 -8.5t-80 -2.5h-28q-13 0 -17.5 16.5t-4.5 49.5q0 38 4.5 54.5t17.5 16.5h33q37 0 66.5 0.5t54 3.5t46 10t43.5 19l98 56q-6 8 -11 13.5t-12 8.5t-17 4t-26 1h-204l6 138h220q29 0 56.5 -9t51.5 -33.5t44.5 -67.5t34.5 -111z
M330 -379h-122v116h122v-116zM406 -225h-121v116h121v-116zM252 -225h-121v116h121v-116z" />
    <glyph glyph-name="che.medi" unicode="&#x686;" horiz-adv-x="555" arabic-form="medial" 
d="M444 147q12 -8 27.5 -9t34.5 -1h49q13 0 17.5 -16t4.5 -50q0 -37 -4.5 -54t-17.5 -17h-54q-34 0 -58 7t-41 20t-28 30.5t-18 38.5l-70 -41q-29 -17 -56 -27.5t-57 -16.5t-65 -8.5t-80 -2.5h-28q-13 0 -17.5 16.5t-4.5 49.5q0 38 4.5 54.5t17.5 16.5h33q37 0 66.5 0.5
t54 3.5t46 10t43.5 19l98 56q-6 8 -11 13.5t-12 8.5t-17 4t-26 1h-204l6 138h220q29 0 56.5 -9t51.5 -33.5t44.5 -67.5t34.5 -111zM330 -379h-122v116h122v-116zM406 -225h-121v116h121v-116zM252 -225h-121v116h121v-116z" />
    <glyph glyph-name="je.fina" unicode="&#x698;" horiz-adv-x="275" arabic-form="final" 
d="M198 16q0 -51 -17.5 -98t-49 -82.5t-75 -56.5t-95.5 -21h-66l-5 137h38q42 0 70.5 10.5t46 27.5t25 38.5t7.5 44.5v281h127v-104q0 -29 17.5 -42.5t42.5 -13.5h11q22 0 22 -66q0 -71 -22 -71h-11q-17 0 -34.5 5.5t-31.5 22.5v-12zM193 561h-122v115h122v-115zM269 407
h-121v116h121v-116zM115 407h-121v116h121v-116z" />
    <glyph glyph-name="kaf.fina" unicode="&#x6a9;" horiz-adv-x="919" arabic-form="final" 
d="M396 374v143l331 121l27 -126l-236 -83l126 -127q62 -62 100 -95.5t66 -49t52 -18t57 -2.5q13 0 17.5 -16t4.5 -50q0 -37 -4.5 -54t-17.5 -17q-32 0 -57.5 1t-49.5 8.5t-48 23.5t-53 46q-15 -44 -51.5 -61.5t-81.5 -17.5h-374q-41 0 -70.5 12.5t-48 33.5t-27 49t-8.5 59
v148h126v-115q0 -12 1.5 -21.5t7.5 -16t17 -9.5t30 -3h329q17 0 22.5 7t5.5 15q0 13 -5 22.5t-17 22.5z" />
    <glyph glyph-name="kaf.init" unicode="&#x6a9;" horiz-adv-x="451" arabic-form="initial" 
d="M237 137q16 0 21.5 7t5.5 15q0 13 -4.5 23t-17.5 22l-171 170v143l331 121l27 -126l-236 -83l126 -127q24 -25 40 -46t25.5 -40.5t13.5 -38.5t4 -40q0 -37 -12 -63t-32 -42.5t-47 -24t-58 -7.5h-253q-13 0 -17.5 16.5t-4.5 49.5q0 38 4.5 54.5t17.5 16.5h237z" />
    <glyph glyph-name="kaf.medi" unicode="&#x6a9;" horiz-adv-x="594" arabic-form="medial" 
d="M237 137q16 0 21.5 7t5.5 15q0 13 -4.5 23t-17.5 22l-171 170v143l331 121l27 -126l-236 -83l126 -127q62 -62 100.5 -95.5t66 -49t51.5 -18t57 -2.5q22 0 22 -66q0 -71 -22 -71q-32 0 -57.5 1t-49.5 8.5t-48 23.5t-53 46q-15 -44 -51.5 -61.5t-81.5 -17.5h-253
q-13 0 -17.5 16.5t-4.5 49.5q0 38 4.5 54.5t17.5 16.5h237z" />
    <glyph glyph-name="gaf.fina" unicode="&#x6af;" horiz-adv-x="919" arabic-form="final" 
d="M385 682l302 110l17 -88l-313 -116zM396 374v143l331 121l27 -126l-236 -83l126 -127q62 -62 100 -95.5t66 -49t52 -18t57 -2.5q13 0 17.5 -16t4.5 -50q0 -37 -4.5 -54t-17.5 -17q-32 0 -57.5 1t-49.5 8.5t-48 23.5t-53 46q-15 -44 -51.5 -61.5t-81.5 -17.5h-374
q-41 0 -70.5 12.5t-48 33.5t-27 49t-8.5 59v148h126v-115q0 -12 1.5 -21.5t7.5 -16t17 -9.5t30 -3h329q17 0 22.5 7t5.5 15q0 13 -5 22.5t-17 22.5z" />
    <glyph glyph-name="gaf.init" unicode="&#x6af;" horiz-adv-x="451" arabic-form="initial" 
d="M65 682l302 110l17 -88l-313 -116zM237 137q16 0 21.5 7t5.5 15q0 13 -4.5 23t-17.5 22l-171 170v143l331 121l27 -126l-236 -83l126 -127q24 -25 40 -46t25.5 -40.5t13.5 -38.5t4 -40q0 -37 -12 -63t-32 -42.5t-47 -24t-58 -7.5h-253q-13 0 -17.5 16.5t-4.5 49.5
q0 38 4.5 54.5t17.5 16.5h237z" />
    <glyph glyph-name="gaf.medi" unicode="&#x6af;" horiz-adv-x="594" arabic-form="medial" 
d="M65 682l302 110l17 -88l-313 -116zM237 137q16 0 21.5 7t5.5 15q0 13 -4.5 23t-17.5 22l-171 170v143l331 121l27 -126l-236 -83l126 -127q62 -62 100.5 -95.5t66 -49t51.5 -18t57 -2.5q22 0 22 -66q0 -71 -22 -71q-32 0 -57.5 1t-49.5 8.5t-48 23.5t-53 46
q-15 -44 -51.5 -61.5t-81.5 -17.5h-253q-13 0 -17.5 16.5t-4.5 49.5q0 38 4.5 54.5t17.5 16.5h237z" />
    <glyph glyph-name="he.thmz.fina" unicode="&#x6c0;" horiz-adv-x="468" arabic-form="final" 
d="M204 490q-50 0 -71.5 21.5t-21.5 54.5q0 29 15.5 60.5t44.5 77.5h126l-5 -88h-88q-8 -11 -10.5 -16t-2.5 -10q0 -13 19 -13h184l-3 -87h-187zM219 165q30 0 43 13.5t13 37.5v59h-46q-35 0 -46.5 -17.5t-11.5 -44.5q0 -23 10 -35.5t38 -12.5zM397 187q0 -50 44 -50h27
q13 0 17.5 -16t4.5 -50q0 -37 -4.5 -54t-17.5 -17h-27q-54 0 -85 17t-48 54q-25 -25 -55.5 -31.5t-59.5 -6.5q-70 0 -106.5 44t-36.5 127q0 37 10.5 72.5t31 63.5t51.5 45t72 17h182v-215z" />
    <glyph glyph-name="he.dochashmi.fina" unicode="&#x6be;" horiz-adv-x="638" arabic-form="final" 
d="M396 209q0 21 -11.5 35t-32.5 14q-25 0 -37.5 -16.5t-12.5 -52.5v-244q0 -42 38 -50l78 94q45 54 72.5 83.5t49.5 44t43.5 17.5t54.5 3q22 0 22 -66q0 -71 -22 -71t-39 -2t-36 -13t-42.5 -36t-58.5 -70l-93 -121q-39 0 -72.5 11t-58 33.5t-38 55t-13.5 76.5v248
q0 37 7.5 74t26.5 67t52 49t85 19q37 0 66 -12.5t48.5 -34.5t29.5 -51t10 -62q0 -74 -41 -129t-106.5 -97t-145.5 -73.5t-158 -58.5l-39 121q74 21 142 46.5t119.5 53t82 57t30.5 58.5z" />
    <glyph glyph-name="he.dochashmi.init" unicode="&#x6be;" horiz-adv-x="693" arabic-form="initial" 
d="M240 286q-23 0 -38 -15t-15 -40q0 -20 13 -43t42 -40q29 17 39 40t10 43q0 25 -14.5 40t-36.5 15zM0 0q-13 0 -17.5 16.5t-4.5 49.5q0 38 4.5 54.5t17.5 16.5h110q-21 29 -30 58t-9 58q0 33 12 63t35 52.5t55.5 36t74.5 13.5q41 0 71 -14t49.5 -37t29 -51.5t9.5 -57.5
q0 -37 -10.5 -66.5t-27.5 -54.5h115q26 0 26 19q0 5 -2.5 10t-10.5 16l-156 198l94 88l159 -204q30 -38 42.5 -70t12.5 -62q0 -27 -9.5 -51t-29 -42t-48.5 -28.5t-67 -10.5h-110q-46 0 -81.5 4.5t-55.5 17.5q-15 -8 -35.5 -12.5t-42 -6.5t-42 -2.5t-34.5 -0.5h-94z" />
    <glyph glyph-name="he.dochashmi.medi" unicode="&#x6be;" horiz-adv-x="522" arabic-form="medial" 
d="M71 137v45q0 37 7.5 74t26.5 67t52.5 49t84.5 19q37 0 66 -12.5t48.5 -34.5t29.5 -51t10 -62q0 -50 -18 -89t-47.5 -67.5t-67 -46t-76.5 -23.5v-60q0 -41 37 -50l78 94q45 54 73 83.5t49.5 44t43 17.5t54.5 3q13 0 17.5 -16t4.5 -50q0 -37 -4.5 -54t-17.5 -17
q-22 0 -39 -2t-35.5 -13t-42.5 -36t-59 -70l-93 -121q-39 0 -72.5 11t-58 33.5t-38 55t-13.5 76.5v66h-71q-13 0 -17.5 16.5t-4.5 49.5q0 38 4.5 54.5t17.5 16.5h71zM187 132q53 8 73 30t20 47q0 21 -11.5 35t-31.5 14q-25 0 -37.5 -16.5t-12.5 -52.5v-57z" />
    <glyph glyph-name="vav.tv.fina" unicode="&#x6c6;" horiz-adv-x="468" arabic-form="final" 
d="M143 -105q67 0 96 30.5t34 74.5h-47q-52 0 -85 11t-52 33t-26.5 53.5t-7.5 72.5q0 39 11 74.5t32.5 61.5t54 41.5t75.5 15.5q34 0 64.5 -11t53.5 -35t36.5 -63t13.5 -95v-22h72q22 0 22 -66q0 -71 -22 -71h-73q-3 -49 -21 -93t-49.5 -77t-76.5 -52.5t-100 -19.5h-98
l-6 137h99zM176 180q0 -24 10.5 -33.5t39.5 -9.5h49v28q0 38 -12.5 52t-38.5 14q-48 0 -48 -51zM281 633l60 -39l-88 -176h-66l-88 176l60 39l61 -127z" />
    <glyph glyph-name="alef.maksura.init" unicode="&#x649;" horiz-adv-x="325" arabic-form="initial" 
d="M94 137q29 0 41.5 13.5t12.5 42.5v104h127v-115q0 -91 -43.5 -136.5t-126.5 -45.5h-105q-13 0 -17.5 16.5t-4.5 49.5q0 38 4.5 54.5t17.5 16.5h94z" />
    <glyph glyph-name="alef.maksura.medi" unicode="&#x649;" horiz-adv-x="335" arabic-form="medial" 
d="M66 137q29 0 42 13.5t13 42.5v104h127v-104q0 -29 18 -42.5t47 -13.5h22q23 0 23 -66q0 -71 -23 -71h-27q-38 0 -69.5 11.5t-56.5 49.5q-26 -38 -54.5 -49.5t-61.5 -11.5h-66q-13 0 -17.5 16.5t-4.5 49.5q0 38 4.5 54.5t17.5 16.5h66z" />
    <glyph glyph-name="ye.fina" unicode="&#x6cc;" horiz-adv-x="682" arabic-form="final" 
d="M374 -105q39 0 64.5 3.5t40.5 10.5t21 18.5t6 28.5t-9.5 30.5t-34.5 13.5h-127l6 137h341q22 0 22 -66q0 -71 -22 -71h-77q22 -15 22 -66q0 -27 -12.5 -58t-40 -57t-72.5 -43.5t-111 -17.5h-111q-112 0 -174 69t-62 189v182h126v-176q0 -29 6 -52.5t20.5 -40t39 -25.5
t61.5 -9h77z" />
    <glyph glyph-name="ye.init" unicode="&#x6cc;" horiz-adv-x="325" arabic-form="initial" 
d="M94 137q29 0 41.5 13.5t12.5 42.5v104h127v-115q0 -91 -43.5 -136.5t-126.5 -45.5h-105q-13 0 -17.5 16.5t-4.5 49.5q0 38 4.5 54.5t17.5 16.5h94zM269 -225h-121v116h121v-116zM115 -225h-121v116h121v-116z" />
    <glyph glyph-name="ye.medi" unicode="&#x6cc;" horiz-adv-x="335" arabic-form="medial" 
d="M66 137q29 0 42 13.5t13 42.5v104h127v-104q0 -29 18 -42.5t47 -13.5h22q23 0 23 -66q0 -71 -23 -71h-27q-38 0 -69.5 11.5t-56.5 49.5q-26 -38 -54.5 -49.5t-61.5 -11.5h-66q-13 0 -17.5 16.5t-4.5 49.5q0 38 4.5 54.5t17.5 16.5h66zM307 -225h-121v116h121v-116z
M153 -225h-121v116h121v-116z" />
    <glyph glyph-name=".shdd.on" unicode="&#xfc5e;" arabic-form="isolated" 
d="M9 325q-8 8 -16 23.5t-8 36.5t7.5 38t20.5 29t29 18.5t34 6.5q42 0 68 -26.5t26 -71.5q0 -30 -18.5 -55.5t-57.5 -44.5l-175 -70l-31 61v49q0 13 -5 17.5t-13 4.5h-30v72h59q21 0 32.5 -11.5t11.5 -37.5v-64zM53 379q0 -18 23 -33q14 7 19.5 16t5.5 19q0 8 -5.5 15.5
t-19.5 7.5q-13 0 -18 -8t-5 -17zM0 22q-6 -7 -16 -14.5t-21 -7.5h-38q-13 0 -28.5 4t-29 16.5t-23 36t-9.5 62.5v61h77v-70q0 -22 10 -27.5t25 -5.5h14v103h77v-103h15q15 0 25 5.5t10 27.5v70h77v-61q0 -39 -10 -62.5t-25 -36t-31.5 -16.5t-29.5 -4h-32q-11 0 -21 7.5
t-16 14.5z" />
    <glyph glyph-name=".shdd.en" unicode="&#xfc5f;" arabic-form="isolated" 
d="M0 352q-6 -7 -16 -14.5t-21 -7.5h-38q-13 0 -28.5 4t-29 16.5t-23 36t-9.5 62.5v61h77v-70q0 -22 10 -27.5t25 -5.5h14v103h77v-103h15q15 0 25 5.5t10 27.5v70h77v-61q0 -39 -10 -62.5t-25 -36t-31.5 -16.5t-29.5 -4h-32q-11 0 -21 7.5t-16 14.5zM107 170l28 -71
l-242 -99l-28 71zM107 291l28 -71l-242 -99l-28 71z" />
    <glyph glyph-name=".shdd.a" unicode="&#xfc60;" arabic-form="isolated" 
d="M107 385l28 -71l-242 -99l-28 71zM0 22q-6 -7 -16 -14.5t-21 -7.5h-38q-13 0 -28.5 4t-29 16.5t-23 36t-9.5 62.5v61h77v-70q0 -22 10 -27.5t25 -5.5h14v103h77v-103h15q15 0 25 5.5t10 27.5v70h77v-61q0 -39 -10 -62.5t-25 -36t-31.5 -16.5t-29.5 -4h-32q-11 0 -21 7.5
t-16 14.5z" />
    <glyph glyph-name=".shdd.o" unicode="&#xfc61;" arabic-form="isolated" 
d="M-143 291l120 45q-8 8 -16 23.5t-8 36.5t7.5 38t20.5 29t29 18.5t34 6.5q42 0 67.5 -26.5t25.5 -71.5q0 -30 -18.5 -55.5t-56.5 -44.5l-175 -70zM21 390q0 -18 23 -33q14 7 19 16t5 19q0 8 -5 15.5t-19 7.5t-18.5 -8t-4.5 -17zM0 22q-6 -7 -16 -14.5t-21 -7.5h-38
q-13 0 -28.5 4t-29 16.5t-23 36t-9.5 62.5v61h77v-70q0 -22 10 -27.5t25 -5.5h14v103h77v-103h15q15 0 25 5.5t10 27.5v70h77v-61q0 -39 -10 -62.5t-25 -36t-31.5 -16.5t-29.5 -4h-32q-11 0 -21 7.5t-16 14.5z" />
    <glyph glyph-name=".shdd.e" unicode="&#xfc62;" arabic-form="isolated" 
d="M0 226q-6 -7 -16 -14.5t-21 -7.5h-38q-13 0 -28.5 4t-29 16.5t-23 36t-9.5 62.5v61h77v-70q0 -22 10 -27.5t25 -5.5h14v103h77v-103h15q15 0 25 5.5t10 27.5v70h77v-61q0 -39 -10 -62.5t-25 -36t-31.5 -16.5t-29.5 -4h-32q-11 0 -21 7.5t-16 14.5zM107 170l28 -71
l-242 -99l-28 71z" />
    <glyph glyph-name=".shdd.aa" unicode="&#xfc63;" arabic-form="isolated" 
d="M1 22q-6 -7 -16 -14.5t-21 -7.5h-38q-13 0 -28.5 4t-29 16.5t-23 36t-9.5 62.5v61h77v-70q0 -22 10 -27.5t25 -5.5h14v103h77v-103h15q15 0 25 5.5t10 27.5v70h77v-61q0 -39 -10 -62.5t-25 -36t-31.5 -16.5t-29.5 -4h-32q-11 0 -21 7.5t-16 14.5zM-39 418h77v-176h-77
v176z" />
    <glyph glyph-name="rial" unicode="&#xfdfc;" horiz-adv-x="1438" arabic-form="isolated" 
d="M1110 -105h13q37 0 63.5 10.5t43 27.5t24 38.5t7.5 44.5v281h127v-281q0 -51 -18.5 -98t-51 -82.5t-77 -56.5t-96.5 -21h-25zM1004 137q29 0 41.5 13.5t12.5 42.5v104h127v-115q0 -91 -43.5 -136.5t-126.5 -45.5h-105q-13 0 -17.5 16.5t-4.5 49.5q0 38 4.5 54.5
t17.5 16.5h94zM970 -236h-121v116h121v-116zM816 -236h-121v116h121v-116zM854 0q-29 0 -55 7.5t-45.5 25.5t-31 47.5t-11.5 73.5v466h127v-433q0 -50 44 -50h27q22 0 22 -66q0 -71 -22 -71h-55zM601 28q0 -58 -17.5 -107.5t-50.5 -85.5t-80 -56.5t-105 -20.5h-66
q-112 0 -174 69t-62 189v182h126v-176q0 -29 6 -52.5t20.5 -40t39 -25.5t61.5 -9h44q39 0 64.5 10.5t40.5 29t21 42.5t6 51v592h126v-592z" />
    <glyph glyph-name="alef.aa.fina" unicode="&#x622;" horiz-adv-x="258" arabic-form="final" 
d="M203 0q-29 0 -55 7.5t-45.5 25.5t-31 47.5t-11.5 73.5v308h127v-275q0 -50 44 -50h27q22 0 22 -66q0 -71 -22 -71h-55zM64 561q-21 0 -31.5 -4.5t-18.5 -23.5l-22 -47l-78 38l34 76q10 21 19 35.5t21 24t28.5 13.5t41.5 4h215l-6 -116h-203z" />
    <glyph glyph-name="alef.thmz.fina" unicode="&#x623;" horiz-adv-x="258" arabic-form="final" 
d="M203 0q-29 0 -55 7.5t-45.5 25.5t-31 47.5t-11.5 73.5v308h127v-275q0 -50 44 -50h27q22 0 22 -66q0 -71 -22 -71h-55zM225 583l-188 -94l-32 67l55 25q-35 31 -35 73t28.5 68t70.5 26h46l-5 -77h-29q-17 0 -25 -7.5t-8 -18.5q0 -10 7 -16.5t18 -6.5q10 0 27 7t40 20z
" />
    <glyph glyph-name="vav.thmz.fina" unicode="&#x624;" horiz-adv-x="468" arabic-form="final" 
d="M143 -105q67 0 96 30.5t34 74.5h-47q-52 0 -85 11t-52 33t-26.5 53.5t-7.5 72.5q0 39 11 74.5t32.5 61.5t54 41.5t75.5 15.5q34 0 64.5 -11t53.5 -35t36.5 -63t13.5 -95v-22h72q22 0 22 -66q0 -71 -22 -71h-73q-3 -49 -21 -93t-49.5 -77t-76.5 -52.5t-100 -19.5h-98
l-6 137h99zM176 180q0 -24 10.5 -33.5t39.5 -9.5h49v28q0 38 -12.5 52t-38.5 14q-48 0 -48 -51zM330 506l-188 -94l-32 67l55 25q-35 31 -35 73t28.5 68t70.5 26h46l-5 -77h-29q-17 0 -25 -7.5t-8 -18.5q0 -10 7 -16.5t18 -6.5q10 0 27 7t40 20z" />
    <glyph glyph-name="alef.bhmz.fina" unicode="&#x625;" horiz-adv-x="258" arabic-form="final" 
d="M203 0q-29 0 -55 7.5t-45.5 25.5t-31 47.5t-11.5 73.5v466h127v-433q0 -50 44 -50h27q22 0 22 -66q0 -71 -22 -71h-55zM263 -263l-188 -94l-32 67l55 25q-35 31 -35 73t28.5 68t70.5 26h46l-5 -77h-29q-17 0 -25 -7.5t-8 -18.5q0 -10 7 -16.5t18 -6.5q10 0 27 7t40 20z
" />
    <glyph glyph-name="ye.thmz.fina" unicode="&#x626;" horiz-adv-x="682" arabic-form="final" 
d="M374 -105q39 0 64.5 3.5t40.5 10.5t21 18.5t6 28.5t-9.5 30.5t-34.5 13.5h-127l6 137h341q22 0 22 -66q0 -71 -22 -71h-77q22 -15 22 -66q0 -27 -12.5 -58t-40 -57t-72.5 -43.5t-111 -17.5h-111q-112 0 -174 69t-62 189v182h126v-176q0 -29 6 -52.5t20.5 -40t39 -25.5
t61.5 -9h77zM451 281l-188 -94l-32 67l55 25q-35 31 -35 73t28.5 68t70.5 26h46l-5 -77h-29q-17 0 -25 -7.5t-8 -18.5q0 -10 7 -16.5t18 -6.5q10 0 27 7t40 20z" />
    <glyph glyph-name="ye.thmz.init" unicode="&#x626;" horiz-adv-x="325" arabic-form="initial" 
d="M94 137q29 0 41.5 13.5t12.5 42.5v104h127v-115q0 -91 -43.5 -136.5t-126.5 -45.5h-105q-13 0 -17.5 16.5t-4.5 49.5q0 38 4.5 54.5t17.5 16.5h94zM264 429l-188 -94l-32 67l55 25q-35 31 -35 73t28.5 68t70.5 26h46l-5 -77h-29q-17 0 -25 -7.5t-8 -18.5q0 -10 7 -16.5
t18 -6.5q10 0 27 7t40 20z" />
    <glyph glyph-name="ye.thmz.medi" unicode="&#x626;" horiz-adv-x="335" arabic-form="medial" 
d="M66 137q29 0 42 13.5t13 42.5v104h127v-104q0 -29 18 -42.5t47 -13.5h22q23 0 23 -66q0 -71 -23 -71h-27q-38 0 -69.5 11.5t-56.5 49.5q-26 -38 -54.5 -49.5t-61.5 -11.5h-66q-13 0 -17.5 16.5t-4.5 49.5q0 38 4.5 54.5t17.5 16.5h66zM264 429l-188 -94l-32 67l55 25
q-35 31 -35 73t28.5 68t70.5 26h46l-5 -77h-29q-17 0 -25 -7.5t-8 -18.5q0 -10 7 -16.5t18 -6.5q10 0 27 7t40 20z" />
    <glyph glyph-name="alef.fina" unicode="&#x627;" horiz-adv-x="258" arabic-form="final" 
d="M203 0q-29 0 -55 7.5t-45.5 25.5t-31 47.5t-11.5 73.5v466h127v-433q0 -50 44 -50h27q22 0 22 -66q0 -71 -22 -71h-55z" />
    <glyph glyph-name="be.fina" unicode="&#x628;" horiz-adv-x="798" arabic-form="final" 
d="M528 137q29 0 42 13.5t13 42.5v104h127v-104q0 -29 18.5 -42.5t47.5 -13.5h22q13 0 17.5 -16t4.5 -50q0 -37 -4.5 -54t-17.5 -17h-27q-38 0 -70 11.5t-57 49.5q-25 -38 -54 -49.5t-62 -11.5h-324q-41 0 -70.5 12.5t-48 33.5t-27 49t-8.5 59v148h126v-115q0 -12 1.5 -21.5
t7.5 -16t17 -9.5t30 -3h296zM452 -230h-132v121h132v-121z" />
    <glyph glyph-name="be.init" unicode="&#x628;" horiz-adv-x="325" arabic-form="initial" 
d="M94 137q29 0 41.5 13.5t12.5 42.5v104h127v-115q0 -91 -43.5 -136.5t-126.5 -45.5h-105q-13 0 -17.5 16.5t-4.5 49.5q0 38 4.5 54.5t17.5 16.5h94zM154 -230h-132v121h132v-121z" />
    <glyph glyph-name="be.medi" unicode="&#x628;" horiz-adv-x="335" arabic-form="medial" 
d="M66 137q29 0 42 13.5t13 42.5v104h127v-104q0 -29 18 -42.5t47 -13.5h22q23 0 23 -66q0 -71 -23 -71h-27q-38 0 -69.5 11.5t-56.5 49.5q-26 -38 -54.5 -49.5t-61.5 -11.5h-66q-13 0 -17.5 16.5t-4.5 49.5q0 38 4.5 54.5t17.5 16.5h66zM225 -230h-132v121h132v-121z" />
    <glyph glyph-name="te.marbuta.fina" unicode="&#x629;" horiz-adv-x="468" arabic-form="final" 
d="M219 165q30 0 43 13.5t13 37.5v59h-46q-35 0 -46.5 -17.5t-11.5 -44.5q0 -23 10 -35.5t38 -12.5zM397 187q0 -50 44 -50h27q13 0 17.5 -16t4.5 -50q0 -37 -4.5 -54t-17.5 -17h-27q-54 0 -85 17t-48 54q-25 -25 -55.5 -31.5t-59.5 -6.5q-70 0 -106.5 44t-36.5 127
q0 37 10.5 72.5t31 63.5t51.5 45t72 17h60v66h122v-281zM391 539h-121v116h121v-116zM237 539h-121v116h121v-116z" />
    <glyph glyph-name="te.fina" unicode="&#x62a;" horiz-adv-x="798" arabic-form="final" 
d="M528 137q29 0 42 13.5t13 42.5v104h127v-104q0 -29 18.5 -42.5t47.5 -13.5h22q13 0 17.5 -16t4.5 -50q0 -37 -4.5 -54t-17.5 -17h-27q-38 0 -70 11.5t-57 49.5q-25 -38 -54 -49.5t-62 -11.5h-324q-41 0 -70.5 12.5t-48 33.5t-27 49t-8.5 59v148h126v-115q0 -12 1.5 -21.5
t7.5 -16t17 -9.5t30 -3h296zM517 374h-121v116h121v-116zM363 374h-121v116h121v-116z" />
    <glyph glyph-name="te.init" unicode="&#x62a;" horiz-adv-x="325" arabic-form="initial" 
d="M94 137q29 0 41.5 13.5t12.5 42.5v104h127v-115q0 -91 -43.5 -136.5t-126.5 -45.5h-105q-13 0 -17.5 16.5t-4.5 49.5q0 38 4.5 54.5t17.5 16.5h94zM274 407h-121v116h121v-116zM120 407h-121v116h121v-116z" />
    <glyph glyph-name="te.medi" unicode="&#x62a;" horiz-adv-x="335" arabic-form="medial" 
d="M66 137q29 0 42 13.5t13 42.5v104h127v-104q0 -29 18 -42.5t47 -13.5h22q23 0 23 -66q0 -71 -23 -71h-27q-38 0 -69.5 11.5t-56.5 49.5q-26 -38 -54.5 -49.5t-61.5 -11.5h-66q-13 0 -17.5 16.5t-4.5 49.5q0 38 4.5 54.5t17.5 16.5h66zM307 407h-121v116h121v-116z
M153 407h-121v116h121v-116z" />
    <glyph glyph-name="the.fina" unicode="&#x62b;" horiz-adv-x="798" arabic-form="final" 
d="M528 137q29 0 42 13.5t13 42.5v104h127v-104q0 -29 18.5 -42.5t47.5 -13.5h22q13 0 17.5 -16t4.5 -50q0 -37 -4.5 -54t-17.5 -17h-27q-38 0 -70 11.5t-57 49.5q-25 -38 -54 -49.5t-62 -11.5h-324q-41 0 -70.5 12.5t-48 33.5t-27 49t-8.5 59v148h126v-115q0 -12 1.5 -21.5
t7.5 -16t17 -9.5t30 -3h296zM441 528h-122v115h122v-115zM517 374h-121v116h121v-116zM363 374h-121v116h121v-116z" />
    <glyph glyph-name="the.init" unicode="&#x62b;" horiz-adv-x="325" arabic-form="initial" 
d="M94 137q29 0 41.5 13.5t12.5 42.5v104h127v-115q0 -91 -43.5 -136.5t-126.5 -45.5h-105q-13 0 -17.5 16.5t-4.5 49.5q0 38 4.5 54.5t17.5 16.5h94zM198 561h-122v115h122v-115zM274 407h-121v116h121v-116zM120 407h-121v116h121v-116z" />
    <glyph glyph-name="the.medi" unicode="&#x62b;" horiz-adv-x="335" arabic-form="medial" 
d="M66 137q29 0 42 13.5t13 42.5v104h127v-104q0 -29 18 -42.5t47 -13.5h22q23 0 23 -66q0 -71 -23 -71h-27q-38 0 -69.5 11.5t-56.5 49.5q-26 -38 -54.5 -49.5t-61.5 -11.5h-66q-13 0 -17.5 16.5t-4.5 49.5q0 38 4.5 54.5t17.5 16.5h66zM231 561h-122v115h122v-115z
M307 407h-121v116h121v-116zM153 407h-121v116h121v-116z" />
    <glyph glyph-name="jim.fina" unicode="&#x62c;" horiz-adv-x="566" arabic-form="final" 
d="M352 226q-6 8 -11 13.5t-12 8.5t-17 4t-26 1h-204l6 138h220q29 0 56.5 -9t51.5 -33.5t44.5 -67.5t34.5 -111l-40 -23q12 -8 27.5 -9t34.5 -1h49q13 0 17.5 -16t4.5 -50q0 -37 -4.5 -54t-17.5 -17h-54q-34 0 -58 7t-41 20t-28 30.5t-18 38.5l-70 -41q-43 -25 -69 -49
t-40 -46.5t-18.5 -44t-4.5 -42.5q0 -54 32.5 -87.5t110.5 -33.5h182l-6 -137h-176q-70 0 -121 19t-84 52.5t-49 78.5t-16 97q0 48 10.5 88.5t34.5 77t63 70.5t96 67zM412 -164h-132v121h132v-121z" />
    <glyph glyph-name="jim.init" unicode="&#x62c;" horiz-adv-x="522" arabic-form="initial" 
d="M286 55q-29 -17 -56 -27.5t-57 -16.5t-65 -8.5t-80 -2.5h-28q-13 0 -17.5 16.5t-4.5 49.5q0 38 4.5 54.5t17.5 16.5h33q37 0 66.5 0.5t54 3.5t46 10t43.5 19l98 56q-6 8 -11 13.5t-12 8.5t-17 4t-26 1h-204l6 138h220q29 0 56.5 -9t51.5 -33.5t44.5 -67.5t34.5 -111z
M314 -230h-132v121h132v-121z" />
    <glyph glyph-name="jim.medi" unicode="&#x62c;" horiz-adv-x="555" arabic-form="medial" 
d="M444 147q12 -8 27.5 -9t34.5 -1h49q13 0 17.5 -16t4.5 -50q0 -37 -4.5 -54t-17.5 -17h-54q-34 0 -58 7t-41 20t-28 30.5t-18 38.5l-70 -41q-29 -17 -56 -27.5t-57 -16.5t-65 -8.5t-80 -2.5h-28q-13 0 -17.5 16.5t-4.5 49.5q0 38 4.5 54.5t17.5 16.5h33q37 0 66.5 0.5
t54 3.5t46 10t43.5 19l98 56q-6 8 -11 13.5t-12 8.5t-17 4t-26 1h-204l6 138h220q29 0 56.5 -9t51.5 -33.5t44.5 -67.5t34.5 -111zM314 -230h-132v121h132v-121z" />
    <glyph glyph-name="him.fina" unicode="&#x62d;" horiz-adv-x="566" arabic-form="final" 
d="M352 226q-6 8 -11 13.5t-12 8.5t-17 4t-26 1h-204l6 138h220q29 0 56.5 -9t51.5 -33.5t44.5 -67.5t34.5 -111l-40 -23q12 -8 27.5 -9t34.5 -1h49q13 0 17.5 -16t4.5 -50q0 -37 -4.5 -54t-17.5 -17h-54q-34 0 -58 7t-41 20t-28 30.5t-18 38.5l-70 -41q-43 -25 -69 -49
t-40 -46.5t-18.5 -44t-4.5 -42.5q0 -54 32.5 -87.5t110.5 -33.5h182l-6 -137h-176q-70 0 -121 19t-84 52.5t-49 78.5t-16 97q0 48 10.5 88.5t34.5 77t63 70.5t96 67z" />
    <glyph glyph-name="him.init" unicode="&#x62d;" horiz-adv-x="522" arabic-form="initial" 
d="M286 55q-29 -17 -56 -27.5t-57 -16.5t-65 -8.5t-80 -2.5h-28q-13 0 -17.5 16.5t-4.5 49.5q0 38 4.5 54.5t17.5 16.5h33q37 0 66.5 0.5t54 3.5t46 10t43.5 19l98 56q-6 8 -11 13.5t-12 8.5t-17 4t-26 1h-204l6 138h220q29 0 56.5 -9t51.5 -33.5t44.5 -67.5t34.5 -111z" />
    <glyph glyph-name="him.medi" unicode="&#x62d;" horiz-adv-x="555" arabic-form="medial" 
d="M444 147q12 -8 27.5 -9t34.5 -1h49q13 0 17.5 -16t4.5 -50q0 -37 -4.5 -54t-17.5 -17h-54q-34 0 -58 7t-41 20t-28 30.5t-18 38.5l-70 -41q-29 -17 -56 -27.5t-57 -16.5t-65 -8.5t-80 -2.5h-28q-13 0 -17.5 16.5t-4.5 49.5q0 38 4.5 54.5t17.5 16.5h33q37 0 66.5 0.5
t54 3.5t46 10t43.5 19l98 56q-6 8 -11 13.5t-12 8.5t-17 4t-26 1h-204l6 138h220q29 0 56.5 -9t51.5 -33.5t44.5 -67.5t34.5 -111z" />
    <glyph glyph-name="khe.fina" unicode="&#x62e;" horiz-adv-x="566" arabic-form="final" 
d="M352 226q-6 8 -11 13.5t-12 8.5t-17 4t-26 1h-204l6 138h220q29 0 56.5 -9t51.5 -33.5t44.5 -67.5t34.5 -111l-40 -23q12 -8 27.5 -9t34.5 -1h49q13 0 17.5 -16t4.5 -50q0 -37 -4.5 -54t-17.5 -17h-54q-34 0 -58 7t-41 20t-28 30.5t-18 38.5l-70 -41q-43 -25 -69 -49
t-40 -46.5t-18.5 -44t-4.5 -42.5q0 -54 32.5 -87.5t110.5 -33.5h182l-6 -137h-176q-70 0 -121 19t-84 52.5t-49 78.5t-16 97q0 48 10.5 88.5t34.5 77t63 70.5t96 67zM324 490h-132v121h132v-121z" />
    <glyph glyph-name="khe.init" unicode="&#x62e;" horiz-adv-x="522" arabic-form="initial" 
d="M286 55q-29 -17 -56 -27.5t-57 -16.5t-65 -8.5t-80 -2.5h-28q-13 0 -17.5 16.5t-4.5 49.5q0 38 4.5 54.5t17.5 16.5h33q37 0 66.5 0.5t54 3.5t46 10t43.5 19l98 56q-6 8 -11 13.5t-12 8.5t-17 4t-26 1h-204l6 138h220q29 0 56.5 -9t51.5 -33.5t44.5 -67.5t34.5 -111z
M314 490h-132v121h132v-121z" />
    <glyph glyph-name="khe.medi" unicode="&#x62e;" horiz-adv-x="555" arabic-form="medial" 
d="M444 147q12 -8 27.5 -9t34.5 -1h49q13 0 17.5 -16t4.5 -50q0 -37 -4.5 -54t-17.5 -17h-54q-34 0 -58 7t-41 20t-28 30.5t-18 38.5l-70 -41q-29 -17 -56 -27.5t-57 -16.5t-65 -8.5t-80 -2.5h-28q-13 0 -17.5 16.5t-4.5 49.5q0 38 4.5 54.5t17.5 16.5h33q37 0 66.5 0.5
t54 3.5t46 10t43.5 19l98 56q-6 8 -11 13.5t-12 8.5t-17 4t-26 1h-204l6 138h220q29 0 56.5 -9t51.5 -33.5t44.5 -67.5t34.5 -111zM314 490h-132v121h132v-121z" />
    <glyph glyph-name="dal.fina" unicode="&#x62f;" horiz-adv-x="506" arabic-form="final" 
d="M237 137q29 0 39 10.5t10 22.5q0 6 -2 16.5t-10.5 35.5t-25 71.5t-44.5 124.5l120 50l100 -275q11 -29 24.5 -42.5t46.5 -13.5h11q22 0 22 -66q0 -71 -22 -71h-11q-33 0 -64.5 11.5t-56.5 49.5q-21 -34 -52.5 -47.5t-68.5 -13.5h-215l-5 137h204z" />
    <glyph glyph-name="zal.fina" unicode="&#x630;" horiz-adv-x="506" arabic-form="final" 
d="M237 137q29 0 39 10.5t10 22.5q0 6 -2 16.5t-10.5 35.5t-25 71.5t-44.5 124.5l120 50l100 -275q11 -29 24.5 -42.5t46.5 -13.5h11q22 0 22 -66q0 -71 -22 -71h-11q-33 0 -64.5 11.5t-56.5 49.5q-21 -34 -52.5 -47.5t-68.5 -13.5h-215l-5 137h204zM341 517h-132v121h132
v-121z" />
    <glyph glyph-name="re.fina" unicode="&#x631;" horiz-adv-x="275" arabic-form="final" 
d="M198 16q0 -51 -17.5 -98t-49 -82.5t-75 -56.5t-95.5 -21h-66l-5 137h38q42 0 70.5 10.5t46 27.5t25 38.5t7.5 44.5v281h127v-104q0 -29 17.5 -42.5t42.5 -13.5h11q22 0 22 -66q0 -71 -22 -71h-11q-17 0 -34.5 5.5t-31.5 22.5v-12z" />
    <glyph glyph-name="ze.fina" unicode="&#x632;" horiz-adv-x="275" arabic-form="final" 
d="M198 16q0 -51 -17.5 -98t-49 -82.5t-75 -56.5t-95.5 -21h-66l-5 137h38q42 0 70.5 10.5t46 27.5t25 38.5t7.5 44.5v281h127v-104q0 -29 17.5 -42.5t42.5 -13.5h11q22 0 22 -66q0 -71 -22 -71h-11q-17 0 -34.5 5.5t-31.5 22.5v-12zM204 407h-132v121h132v-121z" />
    <glyph glyph-name="sin.fina" unicode="&#x633;" horiz-adv-x="1160" arabic-form="final" 
d="M599 193q0 -29 18 -42.5t43 -13.5q33 0 47 13.5t14 42.5v104h126v-104q0 -29 14.5 -42.5t35.5 -13.5q49 0 49 56v104h126v-104q0 -29 18 -42.5t43 -13.5h27q13 0 17.5 -16t4.5 -50q0 -37 -4.5 -54t-17.5 -17h-27q-38 0 -70 11.5t-56 49.5q-25 -38 -55 -49.5t-55 -11.5
q-33 0 -62 11.5t-54 49.5q-25 -38 -56 -49.5t-60 -11.5q-47 0 -71 26v-10q0 -51 -17 -98t-49 -82.5t-78 -56.5t-104 -21h-66q-112 0 -174 69t-62 189v182h126v-176q0 -29 6 -52.5t20.5 -40t39 -25.5t61.5 -9h44q39 0 64.5 10.5t40.5 29t21 42.5t6 51v269h126v-104z" />
    <glyph glyph-name="sin.init" unicode="&#x633;" horiz-adv-x="754" arabic-form="initial" 
d="M50 137q55 0 55 56v104h126v-104q0 -29 17.5 -42.5t42.5 -13.5q33 0 47 13.5t14 42.5v104h127v-104q0 -29 14.5 -42.5t34.5 -13.5q49 0 49 56v104h127v-115q0 -91 -44 -136.5t-127 -45.5q-32 0 -63.5 11.5t-56.5 49.5q-25 -38 -57 -49.5t-65 -11.5q-37 0 -69 11.5
t-57 49.5q-25 -38 -53.5 -49.5t-61.5 -11.5h-50q-13 0 -17.5 16.5t-4.5 49.5q0 38 4.5 54.5t17.5 16.5h50z" />
    <glyph glyph-name="sin.medi" unicode="&#x633;" horiz-adv-x="792" arabic-form="medial" 
d="M50 137q55 0 55 56v104h126v-104q0 -29 17.5 -42.5t42.5 -13.5q33 0 47 13.5t14 42.5v104h127v-104q0 -29 14.5 -42.5t34.5 -13.5q49 0 49 56v104h127v-104q0 -29 18 -42.5t43 -13.5h27q13 0 17.5 -16t4.5 -50q0 -37 -4.5 -54t-17.5 -17h-27q-38 0 -70 11.5t-57 49.5
q-25 -38 -55 -49.5t-55 -11.5q-33 0 -61.5 11.5t-53.5 49.5q-25 -38 -57 -49.5t-65 -11.5q-37 0 -69 11.5t-57 49.5q-25 -38 -53.5 -49.5t-61.5 -11.5h-50q-13 0 -17.5 16.5t-4.5 49.5q0 38 4.5 54.5t17.5 16.5h50z" />
    <glyph glyph-name="shin.fina" unicode="&#x634;" horiz-adv-x="1160" arabic-form="final" 
d="M599 193q0 -29 18 -42.5t43 -13.5q33 0 47 13.5t14 42.5v104h126v-104q0 -29 14.5 -42.5t35.5 -13.5q49 0 49 56v104h126v-104q0 -29 18 -42.5t43 -13.5h27q13 0 17.5 -16t4.5 -50q0 -37 -4.5 -54t-17.5 -17h-27q-38 0 -70 11.5t-56 49.5q-25 -38 -55 -49.5t-55 -11.5
q-33 0 -62 11.5t-54 49.5q-25 -38 -56 -49.5t-60 -11.5q-47 0 -71 26v-10q0 -51 -17 -98t-49 -82.5t-78 -56.5t-104 -21h-66q-112 0 -174 69t-62 189v182h126v-176q0 -29 6 -52.5t20.5 -40t39 -25.5t61.5 -9h44q39 0 64.5 10.5t40.5 29t21 42.5t6 51v269h126v-104zM842 561
h-122v115h122v-115zM918 407h-121v116h121v-116zM764 407h-121v116h121v-116z" />
    <glyph glyph-name="shin.init" unicode="&#x634;" horiz-adv-x="754" arabic-form="initial" 
d="M50 137q55 0 55 56v104h126v-104q0 -29 17.5 -42.5t42.5 -13.5q33 0 47 13.5t14 42.5v104h127v-104q0 -29 14.5 -42.5t34.5 -13.5q49 0 49 56v104h127v-115q0 -91 -44 -136.5t-127 -45.5q-32 0 -63.5 11.5t-56.5 49.5q-25 -38 -57 -49.5t-65 -11.5q-37 0 -69 11.5
t-57 49.5q-25 -38 -53.5 -49.5t-61.5 -11.5h-50q-13 0 -17.5 16.5t-4.5 49.5q0 38 4.5 54.5t17.5 16.5h50zM474 561h-122v115h122v-115zM550 407h-121v116h121v-116zM396 407h-121v116h121v-116z" />
    <glyph glyph-name="shin.medi" unicode="&#x634;" horiz-adv-x="792" arabic-form="medial" 
d="M50 137q55 0 55 56v104h126v-104q0 -29 17.5 -42.5t42.5 -13.5q33 0 47 13.5t14 42.5v104h127v-104q0 -29 14.5 -42.5t34.5 -13.5q49 0 49 56v104h127v-104q0 -29 18 -42.5t43 -13.5h27q13 0 17.5 -16t4.5 -50q0 -37 -4.5 -54t-17.5 -17h-27q-38 0 -70 11.5t-57 49.5
q-25 -38 -55 -49.5t-55 -11.5q-33 0 -61.5 11.5t-53.5 49.5q-25 -38 -57 -49.5t-65 -11.5q-37 0 -69 11.5t-57 49.5q-25 -38 -53.5 -49.5t-61.5 -11.5h-50q-13 0 -17.5 16.5t-4.5 49.5q0 38 4.5 54.5t17.5 16.5h50zM474 561h-122v115h122v-115zM550 407h-121v116h121v-116z
M396 407h-121v116h121v-116z" />
    <glyph glyph-name="sad.fina" unicode="&#x635;" horiz-adv-x="1177" arabic-form="final" 
d="M665 137q70 124 134.5 183.5t130.5 59.5q41 0 73.5 -14.5t55 -40.5t34.5 -61.5t12 -76.5q0 -20 -3 -39q17 -8 33.5 -9.5t30.5 -1.5h11q22 0 22 -66q0 -71 -22 -71h-11q-12 0 -25.5 0.5t-28.5 4.5t-31 13t-34 25q-22 -20 -52.5 -31.5t-70.5 -11.5h-242q-25 0 -49.5 7.5
t-38.5 25.5v-17q0 -51 -17 -98t-49 -82.5t-78 -56.5t-104 -21h-66q-112 0 -174 69t-62 189v182h126v-176q0 -29 6 -52.5t20.5 -40t39 -25.5t61.5 -9h44q39 0 64.5 10.5t40.5 29t21 42.5t6 51v269h126v-77q0 -36 12.5 -59.5t53.5 -23.5zM979 187q0 8 -3 17.5t-10.5 18t-19 14
t-27.5 5.5q-25 0 -55 -23t-72 -82h138q25 0 37 14.5t12 35.5z" />
    <glyph glyph-name="sad.init" unicode="&#x635;" horiz-adv-x="770" arabic-form="initial" 
d="M286 137q70 124 134 183.5t130 59.5q41 0 74 -14.5t55.5 -40.5t34.5 -61.5t12 -76.5q0 -35 -10.5 -68.5t-33 -60t-56.5 -42.5t-82 -16h-264q-37 0 -69 11.5t-57 49.5q-25 -38 -54 -49.5t-62 -11.5h-38q-13 0 -17.5 16.5t-4.5 49.5q0 38 4.5 54.5t17.5 16.5h38q56 0 56 56
v104h126v-104q0 -29 18.5 -42.5t47.5 -13.5zM599 187q0 8 -3 17.5t-10.5 18t-19 14t-27.5 5.5q-25 0 -55 -23.5t-71 -81.5h137q25 0 37 14.5t12 35.5z" />
    <glyph glyph-name="sad.medi" unicode="&#x635;" horiz-adv-x="798" arabic-form="medial" 
d="M286 137q70 124 134 183.5t130 59.5q41 0 74 -14.5t55.5 -40.5t34.5 -61.5t12 -76.5q0 -20 -3 -39q17 -8 33.5 -9.5t30.5 -1.5h11q22 0 22 -66q0 -71 -22 -71h-11q-12 0 -25.5 0.5t-28.5 4.5t-31 13t-34 25q-23 -20 -53.5 -31.5t-70.5 -11.5h-264q-37 0 -69 11.5
t-57 49.5q-25 -38 -54 -49.5t-62 -11.5h-38q-13 0 -17.5 16.5t-4.5 49.5q0 38 4.5 54.5t17.5 16.5h38q56 0 56 56v104h126v-104q0 -29 18.5 -42.5t47.5 -13.5zM599 187q0 8 -3 17.5t-10.5 18t-19 14t-27.5 5.5q-25 0 -55 -23.5t-71 -81.5h137q25 0 37 14.5t12 35.5z" />
    <glyph glyph-name="zad.fina" unicode="&#x636;" horiz-adv-x="1177" arabic-form="final" 
d="M665 137q70 124 134.5 183.5t130.5 59.5q41 0 73.5 -14.5t55 -40.5t34.5 -61.5t12 -76.5q0 -20 -3 -39q17 -8 33.5 -9.5t30.5 -1.5h11q22 0 22 -66q0 -71 -22 -71h-11q-12 0 -25.5 0.5t-28.5 4.5t-31 13t-34 25q-22 -20 -52.5 -31.5t-70.5 -11.5h-242q-25 0 -49.5 7.5
t-38.5 25.5v-17q0 -51 -17 -98t-49 -82.5t-78 -56.5t-104 -21h-66q-112 0 -174 69t-62 189v182h126v-176q0 -29 6 -52.5t20.5 -40t39 -25.5t61.5 -9h44q39 0 64.5 10.5t40.5 29t21 42.5t6 51v269h126v-77q0 -36 12.5 -59.5t53.5 -23.5zM979 187q0 8 -3 17.5t-10.5 18t-19 14
t-27.5 5.5q-25 0 -55 -23t-72 -82h138q25 0 37 14.5t12 35.5zM979 484h-132v121h132v-121z" />
    <glyph glyph-name="zad.init" unicode="&#x636;" horiz-adv-x="770" arabic-form="initial" 
d="M286 137q70 124 134 183.5t130 59.5q41 0 74 -14.5t55.5 -40.5t34.5 -61.5t12 -76.5q0 -35 -10.5 -68.5t-33 -60t-56.5 -42.5t-82 -16h-264q-37 0 -69 11.5t-57 49.5q-25 -38 -54 -49.5t-62 -11.5h-38q-13 0 -17.5 16.5t-4.5 49.5q0 38 4.5 54.5t17.5 16.5h38q56 0 56 56
v104h126v-104q0 -29 18.5 -42.5t47.5 -13.5zM599 187q0 8 -3 17.5t-10.5 18t-19 14t-27.5 5.5q-25 0 -55 -23.5t-71 -81.5h137q25 0 37 14.5t12 35.5zM599 484h-132v121h132v-121z" />
    <glyph glyph-name="zad.medi" unicode="&#x636;" horiz-adv-x="798" arabic-form="medial" 
d="M286 137q70 124 134 183.5t130 59.5q41 0 74 -14.5t55.5 -40.5t34.5 -61.5t12 -76.5q0 -20 -3 -39q17 -8 33.5 -9.5t30.5 -1.5h11q22 0 22 -66q0 -71 -22 -71h-11q-12 0 -25.5 0.5t-28.5 4.5t-31 13t-34 25q-23 -20 -53.5 -31.5t-70.5 -11.5h-264q-37 0 -69 11.5
t-57 49.5q-25 -38 -54 -49.5t-62 -11.5h-38q-13 0 -17.5 16.5t-4.5 49.5q0 38 4.5 54.5t17.5 16.5h38q56 0 56 56v104h126v-104q0 -29 18.5 -42.5t47.5 -13.5zM599 187q0 8 -3 17.5t-10.5 18t-19 14t-27.5 5.5q-25 0 -55 -23.5t-71 -81.5h137q25 0 37 14.5t12 35.5zM599 484
h-132v121h132v-121z" />
    <glyph glyph-name="ta.fina" unicode="&#x637;" horiz-adv-x="649" arabic-form="final" 
d="M127 620h126v-257q0 -21 -0.5 -39t-4.5 -37q38 48 75 70.5t79 22.5q41 0 73.5 -14.5t55 -40.5t34.5 -61.5t12 -76.5q0 -20 -3 -39q17 -8 33.5 -9.5t30.5 -1.5h11q22 0 22 -66q0 -71 -22 -71h-11q-12 0 -25.5 0.5t-28.5 4.5t-31 13t-34 25q-22 -20 -52.5 -31.5
t-70.5 -11.5h-352l-6 137h89v483zM451 187q0 8 -3 17.5t-10.5 18t-19 14t-27.5 5.5q-12 0 -24.5 -4.5t-28 -16.5t-36 -32.5t-49.5 -51.5h149q25 0 37 14.5t12 35.5z" />
    <glyph glyph-name="ta.init" unicode="&#x637;" horiz-adv-x="572" arabic-form="initial" 
d="M77 620h127v-257q0 -21 -0.5 -39t-5.5 -37q38 48 75 70.5t79 22.5q17 0 32 -2.5t29 -7.5q55 -19 85 -68t30 -115q0 -35 -10.5 -68.5t-33 -60t-56.5 -42.5t-82 -16h-346q-13 0 -17.5 16.5t-4.5 49.5q0 38 4.5 54.5t17.5 16.5h77v483zM402 187q0 8 -3.5 17.5t-10.5 18
t-19 14t-28 5.5q-12 0 -24.5 -4.5t-28 -16.5t-36 -32.5t-48.5 -51.5h148q25 0 37.5 14.5t12.5 35.5z" />
    <glyph glyph-name="ta.medi" unicode="&#x637;" horiz-adv-x="599" arabic-form="medial" 
d="M77 620h127v-257q0 -21 -0.5 -39t-5.5 -37q38 48 75 70.5t79 22.5q14 0 27 -2t25 -5q60 -17 92 -67t32 -119q0 -20 -3 -39q17 -8 33 -9.5t30 -1.5h11q13 0 17.5 -16t4.5 -50q0 -37 -4.5 -54t-17.5 -17h-11q-11 0 -24.5 0.5t-28.5 4.5t-31 13t-34 25q-23 -20 -53.5 -31.5
t-70.5 -11.5h-346q-13 0 -17.5 16.5t-4.5 49.5q0 38 4.5 54.5t17.5 16.5h77v483zM402 187q0 8 -3.5 17.5t-10.5 18t-19 14t-28 5.5q-12 0 -24.5 -4.5t-28 -16.5t-36 -32.5t-48.5 -51.5h148q25 0 37.5 14.5t12.5 35.5z" />
    <glyph glyph-name="za.fina" unicode="&#x638;" horiz-adv-x="649" arabic-form="final" 
d="M127 620h126v-257q0 -21 -0.5 -39t-4.5 -37q38 48 75 70.5t79 22.5q41 0 73.5 -14.5t55 -40.5t34.5 -61.5t12 -76.5q0 -20 -3 -39q17 -8 33.5 -9.5t30.5 -1.5h11q22 0 22 -66q0 -71 -22 -71h-11q-12 0 -25.5 0.5t-28.5 4.5t-31 13t-34 25q-22 -20 -52.5 -31.5
t-70.5 -11.5h-352l-6 137h89v483zM451 187q0 8 -3 17.5t-10.5 18t-19 14t-27.5 5.5q-12 0 -24.5 -4.5t-28 -16.5t-36 -32.5t-49.5 -51.5h149q25 0 37 14.5t12 35.5zM484 484h-132v121h132v-121z" />
    <glyph glyph-name="za.init" unicode="&#x638;" horiz-adv-x="572" arabic-form="initial" 
d="M77 620h127v-257q0 -21 -0.5 -39t-5.5 -37q38 48 75 70.5t79 22.5q17 0 32 -2.5t29 -7.5q55 -19 85 -68t30 -115q0 -35 -10.5 -68.5t-33 -60t-56.5 -42.5t-82 -16h-346q-13 0 -17.5 16.5t-4.5 49.5q0 38 4.5 54.5t17.5 16.5h77v483zM402 187q0 8 -3.5 17.5t-10.5 18
t-19 14t-28 5.5q-12 0 -24.5 -4.5t-28 -16.5t-36 -32.5t-48.5 -51.5h148q25 0 37.5 14.5t12.5 35.5zM435 484h-132v121h132v-121z" />
    <glyph glyph-name="za.medi" unicode="&#x638;" horiz-adv-x="599" arabic-form="medial" 
d="M77 620h127v-257q0 -21 -0.5 -39t-5.5 -37q38 48 75 70.5t79 22.5q14 0 27 -2t25 -5q60 -17 92 -67t32 -119q0 -20 -3 -39q17 -8 33 -9.5t30 -1.5h11q13 0 17.5 -16t4.5 -50q0 -37 -4.5 -54t-17.5 -17h-11q-11 0 -24.5 0.5t-28.5 4.5t-31 13t-34 25q-23 -20 -53.5 -31.5
t-70.5 -11.5h-346q-13 0 -17.5 16.5t-4.5 49.5q0 38 4.5 54.5t17.5 16.5h77v483zM402 187q0 8 -3.5 17.5t-10.5 18t-19 14t-28 5.5q-12 0 -24.5 -4.5t-28 -16.5t-36 -32.5t-48.5 -51.5h148q25 0 37.5 14.5t12.5 35.5zM435 484h-132v121h132v-121z" />
    <glyph glyph-name="ein.fina" unicode="&#x639;" horiz-adv-x="572" arabic-form="final" 
d="M286 50q-37 -25 -60 -47.5t-35.5 -44t-16.5 -42.5t-4 -43q0 -25 8 -47t25.5 -38.5t46 -26t69.5 -9.5h165l-5 -137h-160q-72 0 -124 18.5t-85.5 51t-49.5 78t-16 99.5q0 32 5.5 63.5t20.5 64t41 65t67 65.5l-128 166l60 116h264q63 0 95 -32.5t32 -78.5q0 -13 -2.5 -28.5
t-11.5 -34t-25.5 -41t-44.5 -50.5h89h66q22 0 22 -66q0 -71 -22 -71h-93q-58 0 -105 8t-88 42zM363 257q0 18 -28 18h-131l87 -110q42 33 57 56.5t15 35.5z" />
    <glyph glyph-name="ein.init" unicode="&#x639;" horiz-adv-x="462" arabic-form="initial" 
d="M80 137q-9 31 -9 61q0 41 13.5 76t38.5 61t59.5 41t75.5 15q38 0 72 -12.5t72 -37.5l-56 -110q-29 13 -48 17.5t-40 4.5q-28 0 -44 -17t-16 -40q0 -32 22 -45.5t55 -13.5h143l-5 -137h-413q-13 0 -17.5 16.5t-4.5 49.5q0 38 4.5 54.5t17.5 16.5h80z" />
    <glyph glyph-name="ein.medi" unicode="&#x639;" horiz-adv-x="588" arabic-form="medial" 
d="M66 137h54.5t57.5 2l-112 147l61 116h264q50 0 80 -21t41 -54q5 -18 5 -36q0 -13 -2.5 -28.5t-11.5 -34t-25.5 -41t-44.5 -50.5h89h66q13 0 17.5 -16t4.5 -50q0 -37 -4.5 -54t-17.5 -17h-93q-58 0 -104.5 8t-88.5 42q-29 -17 -56 -27t-54.5 -15t-55.5 -6.5t-59 -1.5h-77
q-13 0 -17.5 16.5t-4.5 49.5q0 38 4.5 54.5t17.5 16.5h66zM380 257q0 18 -28 18h-132l88 -110q42 33 57 56.5t15 35.5z" />
    <glyph glyph-name="qein.fina" unicode="&#x63a;" horiz-adv-x="572" arabic-form="final" 
d="M286 50q-37 -25 -60 -47.5t-35.5 -44t-16.5 -42.5t-4 -43q0 -25 8 -47t25.5 -38.5t46 -26t69.5 -9.5h165l-5 -137h-160q-72 0 -124 18.5t-85.5 51t-49.5 78t-16 99.5q0 32 5.5 63.5t20.5 64t41 65t67 65.5l-128 166l60 116h264q63 0 95 -32.5t32 -78.5q0 -13 -2.5 -28.5
t-11.5 -34t-25.5 -41t-44.5 -50.5h89h66q22 0 22 -66q0 -71 -22 -71h-93q-58 0 -105 8t-88 42zM363 257q0 18 -28 18h-131l87 -110q42 33 57 56.5t15 35.5zM357 501h-132v121h132v-121z" />
    <glyph glyph-name="qein.init" unicode="&#x63a;" horiz-adv-x="462" arabic-form="initial" 
d="M80 137q-9 31 -9 61q0 41 13.5 76t38.5 61t59.5 41t75.5 15q38 0 72 -12.5t72 -37.5l-56 -110q-29 13 -48 17.5t-40 4.5q-28 0 -44 -17t-16 -40q0 -32 22 -45.5t55 -13.5h143l-5 -137h-413q-13 0 -17.5 16.5t-4.5 49.5q0 38 4.5 54.5t17.5 16.5h80zM303 484h-132v121h132
v-121z" />
    <glyph glyph-name="qein.medi" unicode="&#x63a;" horiz-adv-x="588" arabic-form="medial" 
d="M66 137h54.5t57.5 2l-112 147l61 116h264q50 0 80 -21t41 -54q5 -18 5 -36q0 -13 -2.5 -28.5t-11.5 -34t-25.5 -41t-44.5 -50.5h89h66q13 0 17.5 -16t4.5 -50q0 -37 -4.5 -54t-17.5 -17h-93q-58 0 -104.5 8t-88.5 42q-29 -17 -56 -27t-54.5 -15t-55.5 -6.5t-59 -1.5h-77
q-13 0 -17.5 16.5t-4.5 49.5q0 38 4.5 54.5t17.5 16.5h66zM380 257q0 18 -28 18h-132l88 -110q42 33 57 56.5t15 35.5zM368 501h-132v121h132v-121z" />
    <glyph glyph-name="fe.fina" unicode="&#x641;" horiz-adv-x="864" arabic-form="final" 
d="M620 286q-23 0 -38 -15t-15 -40q0 -20 13 -40t42 -37q29 17 39 37t10 40q0 25 -14.5 40t-36.5 15zM627 424q42 0 73 -15t51.5 -39t31 -53.5t10.5 -58.5q0 -41 -11 -68.5t-28 -52.5h110q13 0 17.5 -16t4.5 -50q0 -37 -4.5 -54t-17.5 -17h-93q-46 0 -82.5 4.5t-55.5 17.5
q-15 -8 -35 -12.5t-42 -6.5t-42 -2.5t-35 -0.5h-275q-41 0 -70.5 12.5t-48 33.5t-27 49t-8.5 59v148h126v-115q0 -12 1.5 -21.5t7.5 -16t17 -9.5t30 -3h253q-25 34 -32 60.5t-7 55.5q0 33 13 64t36.5 54.5t57 38t74.5 14.5zM688 490h-132v121h132v-121z" />
    <glyph glyph-name="fe.init" unicode="&#x641;" horiz-adv-x="463" arabic-form="initial" 
d="M38 137q19 0 31.5 -0.5t23 -2.5t20.5 -5t24 -8q-41 25 -53.5 60t-12.5 88q0 27 10.5 55.5t31.5 51.5t52 38t72 15q39 0 71.5 -10t55.5 -33t36 -61t13 -94v-55q0 -83 -46.5 -129.5t-146.5 -46.5h-220q-13 0 -17.5 16.5t-4.5 49.5q0 38 4.5 54.5t17.5 16.5h38zM234 291
q-27 0 -37 -16t-10 -33q0 -10 3 -19.5t13 -20.5t29.5 -24t51.5 -30q5 8 6 23.5t1 26.5v22q0 14 -2.5 27t-9 22.5t-17.5 15.5t-28 6zM303 501h-132v121h132v-121z" />
    <glyph glyph-name="fe.medi" unicode="&#x641;" horiz-adv-x="490" arabic-form="medial" 
d="M110 137q-25 34 -32 60.5t-7 55.5q0 33 13 64t37 54.5t57.5 38t74.5 14.5t72 -15t51.5 -39t31 -53.5t10.5 -58.5q0 -41 -10.5 -68.5t-27.5 -52.5h110q22 0 22 -66q0 -71 -22 -71h-94q-46 0 -82 4.5t-56 17.5q-14 -8 -34.5 -12.5t-42 -6.5t-42 -2.5t-34.5 -0.5h-105
q-13 0 -17.5 16.5t-4.5 49.5q0 38 4.5 54.5t17.5 16.5h110zM245 286q-23 0 -37.5 -15t-14.5 -40q0 -20 13 -40t42 -37q29 17 39 37t10 40q0 25 -14.5 40t-37.5 15zM314 490h-132v121h132v-121z" />
    <glyph glyph-name="qaf.fina" unicode="&#x642;" horiz-adv-x="721" arabic-form="final" 
d="M648 0q-3 -49 -21 -93t-49.5 -77t-76 -52.5t-99.5 -19.5h-122q-112 0 -174 69t-62 189v182h126v-176q0 -29 6 -52.5t20.5 -40t39 -25.5t61.5 -9h99q67 0 96 30.5t34 74.5h-47q-52 0 -85 11t-52 33t-26.5 53.5t-7.5 72.5q0 39 11 74.5t32.5 61.5t54 41.5t75.5 15.5
q34 0 64.5 -11t53.5 -35t36.5 -63t13.5 -95v-22h72q22 0 22 -66q0 -71 -22 -71h-73zM429 180q0 -24 10.5 -33.5t39.5 -9.5h49v28q0 38 -12.5 52t-38.5 14q-48 0 -48 -51zM616 451h-121v116h121v-116zM462 451h-121v116h121v-116z" />
    <glyph glyph-name="qaf.init" unicode="&#x642;" horiz-adv-x="463" arabic-form="initial" 
d="M38 137q19 0 31.5 -0.5t23 -2.5t20.5 -5t24 -8q-41 25 -53.5 60t-12.5 88q0 27 10.5 55.5t31.5 51.5t52 38t72 15q39 0 71.5 -10t55.5 -33t36 -61t13 -94v-55q0 -83 -46.5 -129.5t-146.5 -46.5h-220q-13 0 -17.5 16.5t-4.5 49.5q0 38 4.5 54.5t17.5 16.5h38zM234 291
q-27 0 -37 -16t-10 -33q0 -10 3 -19.5t13 -20.5t29.5 -24t51.5 -30q5 8 6 23.5t1 26.5v22q0 14 -2.5 27t-9 22.5t-17.5 15.5t-28 6zM368 506h-121v116h121v-116zM214 506h-121v116h121v-116z" />
    <glyph glyph-name="qaf.medi" unicode="&#x642;" horiz-adv-x="490" arabic-form="medial" 
d="M110 137q-25 34 -32 60.5t-7 55.5q0 33 13 64t37 54.5t57.5 38t74.5 14.5t72 -15t51.5 -39t31 -53.5t10.5 -58.5q0 -41 -10.5 -68.5t-27.5 -52.5h110q22 0 22 -66q0 -71 -22 -71h-94q-46 0 -82 4.5t-56 17.5q-14 -8 -34.5 -12.5t-42 -6.5t-42 -2.5t-34.5 -0.5h-105
q-13 0 -17.5 16.5t-4.5 49.5q0 38 4.5 54.5t17.5 16.5h110zM245 286q-23 0 -37.5 -15t-14.5 -40q0 -20 13 -40t42 -37q29 17 39 37t10 40q0 25 -14.5 40t-37.5 15zM385 495h-121v116h121v-116zM231 495h-121v116h121v-116z" />
    <glyph glyph-name="kaf.arab.fina" unicode="&#x643;" horiz-adv-x="776" arabic-form="final" 
d="M391 209v66q0 12 -3 17t-16 5h-129v138q0 58 28.5 89t86.5 31h66l6 -93h-66q-34 0 -34 -38v-33h83q19 0 31.5 -6.5t20 -17.5t11 -25t3.5 -29v-104h-88zM204 0q-41 0 -70.5 12.5t-48 33.5t-27 49t-8.5 59v148h126v-115q0 -12 1.5 -21.5t7.5 -16t17 -9.5t30 -3h280
q55 0 55 56v427h126v-427q0 -29 19 -42.5t48 -13.5h16q13 0 17.5 -16t4.5 -50q0 -37 -4.5 -54t-17.5 -17h-22q-38 0 -70 11.5t-57 49.5q-25 -38 -53.5 -49.5t-61.5 -11.5h-308z" />
    <glyph glyph-name="lam.fina" unicode="&#x644;" horiz-adv-x="671" arabic-form="final" 
d="M660 0q-17 0 -34.5 5.5t-31.5 22.5v-6q0 -56 -17 -104t-49.5 -83.5t-78.5 -56t-103 -20.5h-66q-112 0 -174 69t-62 189v182h126v-176q0 -29 6 -52.5t20.5 -40t39 -25.5t61.5 -9h44q39 0 64.5 10.5t40.5 29t21 42.5t6 51v592h126v-427q0 -29 18 -42.5t43 -13.5h11
q22 0 22 -66q0 -71 -22 -71h-11z" />
    <glyph glyph-name="lam.init" unicode="&#x644;" horiz-adv-x="264" arabic-form="initial" 
d="M22 137q29 0 42 13.5t13 42.5v427h127v-438q0 -91 -44 -136.5t-127 -45.5h-33q-13 0 -17.5 16.5t-4.5 49.5q0 38 4.5 54.5t17.5 16.5h22z" />
    <glyph glyph-name="lam.medi" unicode="&#x644;" horiz-adv-x="286" arabic-form="medial" 
d="M22 137q29 0 42 13.5t13 42.5v427h127v-427q0 -29 18 -42.5t47 -13.5h17q22 0 22 -66q0 -71 -22 -71h-22q-37 0 -69.5 11.5t-57.5 49.5q-24 -38 -53 -49.5t-62 -11.5h-22q-13 0 -17.5 16.5t-4.5 49.5q0 38 4.5 54.5t17.5 16.5h22z" />
    <glyph glyph-name="mim.fina" unicode="&#x645;" horiz-adv-x="649" arabic-form="final" 
d="M578 209q0 -38 17.5 -55t42.5 -17h11q13 0 17.5 -16t4.5 -50q0 -37 -4.5 -54t-17.5 -17h-11q-14 0 -29 1.5t-30 7t-29.5 16.5t-26.5 30q-25 -33 -58.5 -44t-62.5 -11q-71 0 -115 36.5t-44 106.5v44q0 50 16 66h-11q-37 0 -54.5 -13t-17.5 -42v-440h-126v446
q0 35 12.5 67.5t36.5 58t60 40.5t84 15h181q43 0 72.5 -11.5t47.5 -31.5t26 -47t8 -58v-28zM411 137q26 0 36 11t10 28v28q0 20 -9.5 32t-32.5 12h-11q-22 0 -31 -12t-9 -32v-28q0 -17 9 -28t38 -11z" />
    <glyph glyph-name="mim.init" unicode="&#x645;" horiz-adv-x="463" arabic-form="initial" 
d="M5 137q30 0 48 10.5t18 39.5v11q0 39 12 72.5t34 57.5t54 38t71 14q41 0 73 -14t53.5 -38.5t33 -59t11.5 -75.5q0 -92 -46.5 -142.5t-124.5 -50.5q-39 0 -75.5 16t-53.5 45q-19 -34 -49 -47.5t-59 -13.5h-5q-13 0 -17.5 16.5t-4.5 49.5q0 38 4.5 54.5t17.5 16.5h5z
M291 187q0 21 -10 38t-39 17t-39 -17t-10 -38q0 -50 49 -50t49 50z" />
    <glyph glyph-name="mim.medi" unicode="&#x645;" horiz-adv-x="484" arabic-form="medial" 
d="M5 137q30 0 48 10.5t18 39.5v11q0 39 12 72.5t34 57.5t54 38t71 14q41 0 73 -14t53.5 -38t33 -57.5t11.5 -72.5v-11q0 -15 6 -24.5t15 -15t19.5 -8t19.5 -2.5h11q13 0 17.5 -16t4.5 -50q0 -37 -4.5 -54t-17.5 -17h-11q-29 0 -58.5 12.5t-53.5 48.5q-28 -38 -60 -49.5
t-64 -11.5q-39 0 -73 16t-51 45q-19 -34 -49 -47.5t-59 -13.5h-5q-13 0 -17.5 16.5t-4.5 49.5q0 38 4.5 54.5t17.5 16.5h5zM291 187q0 21 -10 38t-39 17t-39 -17t-10 -38q0 -50 49 -50t49 50z" />
    <glyph glyph-name="nun.fina" unicode="&#x646;" horiz-adv-x="671" arabic-form="final" 
d="M660 0q-17 0 -34.5 5.5t-31.5 22.5v-6q0 -56 -17 -104t-49 -83.5t-78 -56t-104 -20.5h-66q-112 0 -174 69t-62 189v182h126v-176q0 -29 6 -52.5t20.5 -40t39 -25.5t61.5 -9h44q39 0 64.5 10.5t40.5 29t21 42.5t6 51v269h126v-104q0 -29 18 -42.5t43 -13.5h11q22 0 22 -66
q0 -71 -22 -71h-11zM368 308h-132v121h132v-121z" />
    <glyph glyph-name="nun.init" unicode="&#x646;" horiz-adv-x="325" arabic-form="initial" 
d="M94 137q29 0 41.5 13.5t12.5 42.5v104h127v-115q0 -91 -43.5 -136.5t-126.5 -45.5h-105q-13 0 -17.5 16.5t-4.5 49.5q0 38 4.5 54.5t17.5 16.5h94zM242 407h-132v121h132v-121z" />
    <glyph glyph-name="nun.medi" unicode="&#x646;" horiz-adv-x="335" arabic-form="medial" 
d="M66 137q29 0 42 13.5t13 42.5v104h127v-104q0 -29 18 -42.5t47 -13.5h22q23 0 23 -66q0 -71 -23 -71h-27q-38 0 -69.5 11.5t-56.5 49.5q-26 -38 -54.5 -49.5t-61.5 -11.5h-66q-13 0 -17.5 16.5t-4.5 49.5q0 38 4.5 54.5t17.5 16.5h66zM242 407h-132v121h132v-121z" />
    <glyph glyph-name="he.fina" unicode="&#x647;" horiz-adv-x="468" arabic-form="final" 
d="M219 165q30 0 43 13.5t13 37.5v59h-46q-35 0 -46.5 -17.5t-11.5 -44.5q0 -23 10 -35.5t38 -12.5zM397 187q0 -50 44 -50h27q13 0 17.5 -16t4.5 -50q0 -37 -4.5 -54t-17.5 -17h-27q-54 0 -85 17t-48 54q-25 -25 -55.5 -31.5t-59.5 -6.5q-70 0 -106.5 44t-36.5 127
q0 37 10.5 72.5t31 63.5t51.5 45t72 17h60v66h122v-281z" />
    <glyph glyph-name="he.init" unicode="&#x647;" horiz-adv-x="693" arabic-form="initial" 
d="M240 286q-23 0 -38 -15t-15 -40q0 -20 13 -43t42 -40q29 17 39 40t10 43q0 25 -14.5 40t-36.5 15zM0 0q-13 0 -17.5 16.5t-4.5 49.5q0 38 4.5 54.5t17.5 16.5h110q-21 29 -30 58t-9 58q0 33 12 63t35 52.5t55.5 36t74.5 13.5q41 0 71 -14t49.5 -37t29 -51.5t9.5 -57.5
q0 -37 -10.5 -66.5t-27.5 -54.5h115q26 0 26 19q0 5 -2.5 10t-10.5 16l-156 198l94 88l159 -204q30 -38 42.5 -70t12.5 -62q0 -27 -9.5 -51t-29 -42t-48.5 -28.5t-67 -10.5h-110q-46 0 -81.5 4.5t-55.5 17.5q-15 -8 -35.5 -12.5t-42 -6.5t-42 -2.5t-34.5 -0.5h-94z" />
    <glyph glyph-name="he.medi" unicode="&#x647;" horiz-adv-x="522" arabic-form="medial" 
d="M71 137v45q0 37 7.5 74t26.5 67t52.5 49t84.5 19q37 0 66 -12.5t48.5 -34.5t29.5 -51t10 -62q0 -50 -18 -89t-47.5 -67.5t-67 -46t-76.5 -23.5v-60q0 -41 37 -50l78 94q45 54 73 83.5t49.5 44t43 17.5t54.5 3q13 0 17.5 -16t4.5 -50q0 -37 -4.5 -54t-17.5 -17
q-22 0 -39 -2t-35.5 -13t-42.5 -36t-59 -70l-93 -121q-39 0 -72.5 11t-58 33.5t-38 55t-13.5 76.5v66h-71q-13 0 -17.5 16.5t-4.5 49.5q0 38 4.5 54.5t17.5 16.5h71zM187 132q53 8 73 30t20 47q0 21 -11.5 35t-31.5 14q-25 0 -37.5 -16.5t-12.5 -52.5v-57z" />
    <glyph glyph-name="vav.fina" unicode="&#x648;" horiz-adv-x="468" arabic-form="final" 
d="M143 -105q67 0 96 30.5t34 74.5h-47q-52 0 -85 11t-52 33t-26.5 53.5t-7.5 72.5q0 39 11 74.5t32.5 61.5t54 41.5t75.5 15.5q34 0 64.5 -11t53.5 -35t36.5 -63t13.5 -95v-22h72q22 0 22 -66q0 -71 -22 -71h-73q-3 -49 -21 -93t-49.5 -77t-76.5 -52.5t-100 -19.5h-98
l-6 137h99zM176 180q0 -24 10.5 -33.5t39.5 -9.5h49v28q0 38 -12.5 52t-38.5 14q-48 0 -48 -51z" />
    <glyph glyph-name="alef.maksura.fina" unicode="&#x649;" horiz-adv-x="682" arabic-form="final" 
d="M374 -105q39 0 64.5 3.5t40.5 10.5t21 18.5t6 28.5t-9.5 30.5t-34.5 13.5h-127l6 137h341q22 0 22 -66q0 -71 -22 -71h-77q22 -15 22 -66q0 -27 -12.5 -58t-40 -57t-72.5 -43.5t-111 -17.5h-111q-112 0 -174 69t-62 189v182h126v-176q0 -29 6 -52.5t20.5 -40t39 -25.5
t61.5 -9h77z" />
    <glyph glyph-name="ye.arab.fina" unicode="&#x64a;" horiz-adv-x="682" arabic-form="final" 
d="M374 -105q39 0 64.5 3.5t40.5 10.5t21 18.5t6 28.5t-9.5 30.5t-34.5 13.5h-127l6 137h341q22 0 22 -66q0 -71 -22 -71h-77q22 -15 22 -66q0 -27 -12.5 -58t-40 -57t-72.5 -43.5t-111 -17.5h-111q-112 0 -174 69t-62 189v182h126v-176q0 -29 6 -52.5t20.5 -40t39 -25.5
t61.5 -9h77zM467 -445h-121v116h121v-116zM313 -445h-121v116h121v-116z" />
    <glyph glyph-name=".notdef" horiz-adv-x="550" 
d="M462 0h-396v610h396v-610zM187 473v-336h154v336h-154z" />
    <glyph glyph-name=".null" horiz-adv-x="957" 
 />
    <glyph glyph-name="nonmarkingreturn" horiz-adv-x="957" 
 />
    <glyph glyph-name="line_feed" unicode="&#xa;" 
 />
    <glyph glyph-name="carriage_return" unicode="&#xd;" 
 />
    <glyph glyph-name="space" unicode=" " horiz-adv-x="132" 
 />
    <glyph glyph-name="exclam" unicode="!" horiz-adv-x="253" 
d="M187 484q0 -47 -2 -87.5t-5 -76.5t-7 -69t-8 -64h-77q-4 31 -9 63.5t-9 68.5t-6.5 77t-2.5 88v126h126v-126zM127 0q-32 0 -52 16.5t-20 51.5q0 37 20 53t52 16q31 0 51 -16t20 -53q0 -35 -20 -51.5t-51 -16.5z" />
    <glyph glyph-name="quotedbl" unicode="&#x22;" horiz-adv-x="363" 
d="M44 610h110v-236h-110v236zM209 610h110v-236h-110v236z" />
    <glyph glyph-name="numbersign" unicode="#" horiz-adv-x="682" 
d="M188 360h-122v108h138l22 131l98 -14l-19 -117h123l23 131l99 -14l-21 -117h109v-108h-125l-22 -126h125v-102h-143l-22 -132l-99 14l20 118h-123l-23 -132l-99 14l20 118h-103v102h122zM391 234l20 126h-123l-21 -126h124z" />
    <glyph glyph-name="quotesingle" unicode="'" horiz-adv-x="198" 
d="M44 610h110v-236h-110v236z" />
    <glyph glyph-name="parenleft" unicode="(" horiz-adv-x="324" 
d="M170 209q0 -54 5 -95t17.5 -76.5t33.5 -69.5t54 -73l-76 -77q-37 35 -66.5 73.5t-50.5 85t-32 103.5t-11 129t11 129t32 103.5t50.5 84.5t66.5 73l76 -77q-33 -39 -54 -72.5t-33.5 -69t-17.5 -76.5t-5 -95z" />
    <glyph glyph-name="parenright" unicode=")" horiz-adv-x="324" 
d="M154.011 209.013q0 53.9971 -5 94.9941q-5 40.998 -17.499 76.4951q-12.499 35.498 -33.498 69.4961t-53.9961 72.9951l75.9951 76.9961q36.9971 -34.998 66.4961 -73.4961q29.498 -38.4971 50.4961 -84.9941q20.999 -46.498 31.998 -103.494q11 -56.9961 11 -128.992
q0 -71.9951 -11 -128.992q-10.999 -56.9961 -31.998 -103.493q-20.998 -46.498 -50.4961 -84.4951q-29.499 -37.998 -66.4961 -72.9961l-75.9951 76.9961q32.9971 38.9971 53.9961 72.4951t33.498 68.9961t17.499 76.4951t5 94.9941z" />
    <glyph glyph-name="asterisk" unicode="*" horiz-adv-x="505" 
d="M167 210l-81 65l90 106l-132 48l42 96l120 -56l-6 142h105l-6 -142l120 56l42 -96l-132 -48l90 -106l-81 -65l-85 115z" />
    <glyph glyph-name="plus" unicode="+" horiz-adv-x="490" 
d="M44 137v116h146v143h115v-143h141v-116h-141v-137h-115v137h-146z" />
    <glyph glyph-name="hyphen_minus" unicode="-" horiz-adv-x="490" 
d="M44 137v121h402v-121h-402z" />
    <glyph glyph-name="period" unicode="." horiz-adv-x="275" 
d="M137 0q-37 0 -59.5 20.5t-22.5 61.5q0 42 22.5 62.5t59.5 20.5q38 0 60.5 -20.5t22.5 -62.5q0 -41 -22.5 -61.5t-60.5 -20.5z" />
    <glyph glyph-name="slash" unicode="/" horiz-adv-x="577" 
d="M435 594l98 -66l-390 -605l-99 66z" />
    <glyph glyph-name="zero" unicode="0" horiz-adv-x="536" 
d="M505 265q0 -84 -18 -145.5t-50 -102t-76 -60t-95 -19.5t-94.5 19.5t-75 60t-49 102t-17.5 145.5t17.5 146t49 102.5t75 60t94.5 19.5t95 -19.5t76 -60t50 -102.5t18 -146zM364 265q0 67 -8.5 109.5t-22 67t-31.5 33.5t-36 9t-35.5 -9t-31 -33.5t-21.5 -67t-8 -109.5
q0 -66 8 -108.5t21.5 -67t31 -33.5t35.5 -9t36 9t31.5 33.5t22 67t8.5 108.5z" />
    <glyph glyph-name="one" unicode="1" horiz-adv-x="373" 
d="M300 586v-641h-136v421v27.5t1 27.5l-49 -44q-16 -12 -39 -11.5t-35 15.5l-41 47l186 158h113z" />
    <glyph glyph-name="two" unicode="2" horiz-adv-x="496" 
d="M418 68q22 0 34.5 -12t12.5 -32v-79h-450v44q0 12 5 26.5t18 27.5l185 186q48 47 71 87t23 87q0 38 -18 58.5t-56 20.5q-31 0 -51.5 -16t-28.5 -40q-9 -24 -24 -32t-43 -3l-72 12q7 48 26.5 83.5t49.5 59.5t68.5 35.5t82.5 11.5q47 0 85 -14t65 -38.5t41.5 -59
t14.5 -74.5q0 -36 -10 -66t-27.5 -57t-40 -52t-47.5 -52l-126 -127q49 15 92 15h120z" />
    <glyph glyph-name="three" unicode="3" horiz-adv-x="504" 
d="M36 403q7 48 27 83.5t50 59.5t68 35.5t82 11.5q47 0 84 -13.5t62.5 -36t39 -53t13.5 -63.5q0 -62 -24 -94t-71 -48q106 -37 106 -145q0 -51 -18.5 -89t-49.5 -63t-71.5 -37.5t-84.5 -12.5q-92 0 -146 40.5t-84 131.5l60 24q24 9 44.5 5t28.5 -20q38 -71 94 -71q23 0 40 8
t28.5 20.5t17 28t5.5 30.5q0 20 -3 37t-16 29t-39.5 18.5t-73.5 6.5v94q40 0 64 6t37.5 17t18 26t4.5 34q0 38 -18 58.5t-56 20.5q-30 0 -51 -16t-29 -40q-9 -24 -24 -32t-43 -3z" />
    <glyph glyph-name="four" unicode="4" horiz-adv-x="528" 
d="M313 194v167q0 16 1.5 33t3.5 37l-171 -237h166zM498 194v-76q0 -11 -7 -18.5t-19 -7.5h-40v-147h-119v147h-258q-14 0 -23.5 8.5t-11.5 19.5l-15 67l296 398h131v-391h66z" />
    <glyph glyph-name="five" unicode="5" horiz-adv-x="474" 
d="M174 361q18 3 34.5 4t32.5 1q51 0 89.5 -15.5t65 -42t40 -62.5t13.5 -77q0 -51 -18.5 -93.5t-51 -73t-77.5 -47.5t-98 -17q-63 0 -113 24.5t-84 57.5l41 56q13 18 34 18q14 0 25.5 -7t25.5 -16t32.5 -16t45.5 -7t46.5 9t31.5 25t17.5 36.5t5.5 44.5q0 46 -26 70.5
t-75 24.5q-43 0 -84 -16l-85 23l55 320h328v-56q0 -27 -18 -45t-62 -18h-154z" />
    <glyph glyph-name="six" unicode="6" horiz-adv-x="512" 
d="M254 45q21 0 39 8t31.5 22t21.5 32.5t8 40.5q0 51 -28 77.5t-73 26.5q-42 0 -68.5 -28t-26.5 -74q0 -48 23 -76.5t73 -28.5zM232 339q16 7 32.5 9.5t36.5 2.5q35 0 69 -11.5t61 -35.5t43.5 -60.5t16.5 -85.5q0 -45 -17 -85t-47.5 -70t-74 -47.5t-95.5 -17.5
q-54 0 -96.5 17t-72 47t-45 72t-15.5 93q0 97 72 193l144 194q10 14 29 22.5t45 8.5h121l-190 -226q-5 -5 -8.5 -10t-8.5 -10z" />
    <glyph glyph-name="seven" unicode="7" horiz-adv-x="469" 
d="M458 585v-57q0 -25 -6 -40.5t-11 -25.5l-223 -472q-9 -19 -26 -32t-45 -13h-100l229 459q10 18 20 33.5t23 28.5h-282q-11 0 -20.5 9t-9.5 21v89h451z" />
    <glyph glyph-name="eight" unicode="8" horiz-adv-x="516" 
d="M255 41q47 0 67.5 26t20.5 64q0 41 -19 67t-69 26t-69 -26t-19 -67q0 -38 21 -64t67 -26zM255 493q-21 0 -35 -6.5t-23 -17.5t-13 -24.5t-4 -28.5q0 -17 3 -33t11.5 -28t23 -19.5t37.5 -7.5t37.5 7.5t23 19.5t11.5 28t3 33q0 15 -4 28.5t-13 24.5t-23 17.5t-35 6.5z
M376 279q57 -20 82.5 -59t25.5 -92q0 -43 -16.5 -78t-46.5 -60t-72.5 -38.5t-93.5 -13.5t-93 13.5t-72.5 38.5t-47 60t-16.5 78q0 53 25.5 92t82.5 59q-87 40 -87 139q0 37 15.5 69.5t43 55.5t66 36.5t83.5 13.5t83.5 -13.5t66 -36.5t43 -55.5t15.5 -69.5q0 -98 -87 -139z
" />
    <glyph glyph-name="nine" unicode="9" horiz-adv-x="477" 
d="M142 391q0 -96 89 -96q43 0 66.5 25.5t23.5 70.5q0 46 -25 70t-67 24t-64.5 -27t-22.5 -67zM251 188q7 8 12 14.5t11 13.5q-42 -21 -92 -21q-31 0 -62.5 11t-57 34t-41.5 58t-16 82q0 43 16 82t46 68t71.5 46t92.5 17q52 0 92.5 -16t69 -44.5t43.5 -68t15 -86.5
q0 -63 -18.5 -112.5t-50.5 -93.5l-138 -197q-10 -13 -28.5 -21.5t-41.5 -8.5h-127z" />
    <glyph glyph-name="colon" unicode=":" horiz-adv-x="275" 
d="M137 242q-37 0 -59.5 20.5t-22.5 61.5q0 42 22.5 62.5t59.5 20.5q38 0 60.5 -20.5t22.5 -62.5q0 -41 -22.5 -61.5t-60.5 -20.5zM137 0q-37 0 -59.5 20.5t-22.5 61.5q0 42 22.5 62.5t59.5 20.5q38 0 60.5 -20.5t22.5 -62.5q0 -41 -22.5 -61.5t-60.5 -20.5z" />
    <glyph glyph-name="less" unicode="&#x3c;" horiz-adv-x="457" 
d="M413 110l-50 -121l-319 169v117l319 171l50 -122l-226 -107z" />
    <glyph glyph-name="equal" unicode="=" horiz-adv-x="490" 
d="M44 28v121h402v-121h-402zM44 247v121h402v-121h-402z" />
    <glyph glyph-name="greater" unicode="&#x3e;" horiz-adv-x="457" 
d="M44.0254 110l49.9971 -121l318.98 169v117l-318.98 171l-49.9971 -122l225.986 -107z" />
    <glyph glyph-name="bracketleft" unicode="[" horiz-adv-x="308" 
d="M264 594v-115h-105v-540h105v-115h-220v770h220z" />
    <glyph glyph-name="backslash" unicode="\" horiz-adv-x="577" 
d="M142.026 594l-97.9941 -66l389.977 -605l98.9941 66z" />
    <glyph glyph-name="bracketright" unicode="]" horiz-adv-x="308" 
d="M44.0156 594v-115h104.994v-540h-104.994v-115h219.987v770h-219.987z" />
    <glyph glyph-name="underscore" unicode="_" horiz-adv-x="471" 
d="M44 82h383v-93h-383v93z" />
    <glyph glyph-name="braceleft" unicode="{" horiz-adv-x="382" 
d="M44 264q30 1 47.5 10.5t26.5 28.5t11.5 48t2.5 69t4.5 72.5t18 55t39.5 34.5t70 12h74v-115h-40q-11 0 -19.5 -2t-14 -9.5t-8.5 -21.5t-3 -39q0 -45 -3.5 -78t-11.5 -56t-21.5 -38.5t-34.5 -25.5q21 -10 34.5 -25.5t21.5 -38.5t11.5 -56t3.5 -78q0 -25 3 -39t8.5 -21.5
t14 -9.5t19.5 -2h40v-115h-74q-44 0 -70 12t-39.5 34.5t-18 54.5t-4.5 73q0 40 -2.5 69t-11.5 48t-26.5 28.5t-47.5 10.5v110z" />
    <glyph glyph-name="bar" unicode="|" horiz-adv-x="215" 
d="M170 -176h-126v770h126v-770z" />
    <glyph glyph-name="braceright" unicode="}" horiz-adv-x="382" 
d="M338.003 264q-29.998 1 -47.4971 10.5t-26.499 28.5q-8.99902 19 -11.499 48t-2.5 69t-4.49902 72.5q-4.5 32.5 -17.999 55q-13.5 22.5 -39.498 34.5t-69.9961 12h-73.9951v-115h39.998q10.999 0 19.498 -2q8.5 -2 14 -9.5q5.49902 -7.5 8.49902 -21.5t3 -39
q0 -45 3.5 -78q3.49902 -33 11.499 -56q7.99902 -23 21.499 -38.5q13.499 -15.5 34.4971 -25.5q-20.998 -10 -34.4971 -25.5q-13.5 -15.5 -21.499 -38.5q-8 -23 -11.499 -56q-3.5 -33 -3.5 -78q0 -25 -3 -39t-8.49902 -21.5q-5.5 -7.5 -14 -9.5q-8.49902 -2 -19.498 -2
h-39.998v-115h73.9951q43.998 0 69.9961 12t39.498 34.5q13.499 22.5 17.999 54.5q4.49902 32 4.49902 73q0 40 2.5 69t11.499 48q9 19 26.499 28.5t47.4971 10.5v110z" />
    <glyph glyph-name="nonbreakingspace" unicode="&#xa0;" horiz-adv-x="110" 
 />
    <glyph glyph-name="brokenbar" unicode="&#xa6;" horiz-adv-x="215" 
d="M170 280h-126v314h126v-314zM170 -176h-126v313h126v-313z" />
    <glyph glyph-name="guillemotleft" unicode="&#xab;" horiz-adv-x="490" 
d="M165 209q0 -31 2 -57.5t9 -53t21.5 -54.5t39.5 -61l-78 -66q-37 39 -59.5 76.5t-35 74t-16.5 71.5t-4 70t4 70t16.5 71.5t35 74t59.5 76.5l78 -66q-25 -33 -39.5 -61t-21.5 -54.5t-9 -53t-2 -57.5zM374 209q0 -31 2 -57.5t9 -53t21.5 -54.5t39.5 -61l-78 -66
q-37 39 -59.5 76.5t-35 74t-16.5 71.5t-4 70t4 70t16.5 71.5t35 74t59.5 76.5l78 -66q-25 -33 -39.5 -61t-21.5 -54.5t-9 -53t-2 -57.5z" />
    <glyph glyph-name="logicalnot" unicode="&#xac;" horiz-adv-x="490" 
d="M335 209h-291v115h402v-268h-111v153z" />
    <glyph glyph-name="softHyphen" unicode="&#xad;" horiz-adv-x="429" 
d="M44 137v121h341v-121h-341z" />
    <glyph glyph-name="degree" unicode="&#xb0;" horiz-adv-x="339" 
d="M44 473q0 26 10 49t27 40t39.5 27t48.5 10t49 -10t40 -27t27 -40t10 -49t-10 -48.5t-27 -39t-40 -26.5t-49 -10t-48.5 10t-39.5 26.5t-27 39t-10 48.5zM132 474q0 -16 10.5 -26.5t26.5 -10.5t27 10.5t11 26.5t-11 27t-27 11t-26.5 -11t-10.5 -27z" />
    <glyph glyph-name="plusminus" unicode="&#xb1;" horiz-adv-x="490" 
d="M44 0v121h402v-121h-402zM44 313v116h146v143h115v-143h141v-116h-141v-137h-115v137h-146z" />
    <glyph glyph-name="paragraph" unicode="&#xb6;" horiz-adv-x="528" 
d="M484 0h-110v517h-61v-517h-104v286q-43 0 -74 5.5t-51.5 22t-30 46.5t-9.5 80q0 49 10.5 79.5t31.5 47t53 22t76 5.5h269v-594z" />
    <glyph glyph-name="periodcentered" unicode="&#xb7;" horiz-adv-x="286" 
d="M159 198q-37 0 -59.5 20.5t-22.5 61.5q0 42 22.5 62.5t59.5 20.5q38 0 60.5 -20.5t22.5 -62.5q0 -41 -22.5 -61.5t-60.5 -20.5z" />
    <glyph glyph-name="guillemotright" unicode="&#xbb;" horiz-adv-x="490" 
d="M115.01 209q0 -31 -2 -57.5q-1.99902 -26.5 -8.99902 -53t-21.499 -54.5t-39.4971 -61l77.9951 -66q36.998 39 59.4961 76.5q22.499 37.5 34.998 74t16.499 71.5t4 70t-4 70t-16.499 71.5t-34.998 74q-22.498 37.5 -59.4961 76.5l-77.9951 -66q24.998 -33 39.4971 -61
t21.499 -54.5t8.99902 -53q2 -26.5 2 -57.5zM325.01 209q0 -31 -2 -57.5q-1.99902 -26.5 -8.99902 -53t-21.499 -54.5t-39.4971 -61l77.9951 -66q36.998 39 59.4961 76.5q22.499 37.5 34.998 74t16.499 71.5t4 70t-4 70t-16.499 71.5t-34.998 74q-22.498 37.5 -59.4961 76.5
l-77.9951 -66q24.998 -33 39.4971 -61t21.499 -54.5t8.99902 -53q2 -26.5 2 -57.5z" />
    <glyph glyph-name="multiply" unicode="&#xd7;" horiz-adv-x="504" 
d="M44 330l81 80l127 -126l126 126l82 -80l-127 -128l127 -127l-82 -81l-126 127l-127 -127l-81 81l126 127z" />
    <glyph glyph-name="divide" unicode="&#xf7;" horiz-adv-x="490" 
d="M174 121h136v-121h-136v121zM174 506h136v-121h-136v121zM44 192v121h402v-121h-402z" />
    <glyph glyph-name="darhezar" unicode="&#x609;" horiz-adv-x="979" 
d="M809 209q25 0 47.5 -10.5t40 -28.5t28 -41t10.5 -47q0 -25 -10.5 -47.5t-28 -40t-40 -28t-47.5 -10.5q-24 0 -47 10.5t-41 28t-28.5 40t-10.5 47.5q0 24 10.5 47t28.5 41t41 28.5t47 10.5zM809 54q10 0 18.5 8.5t8.5 19.5t-8.5 19.5t-18.5 8.5q-11 0 -19.5 -8.5
t-8.5 -19.5t8.5 -19.5t19.5 -8.5zM517 209q25 0 47.5 -10.5t40 -28.5t28 -41t10.5 -47q0 -25 -10.5 -47.5t-28 -40t-40 -28t-47.5 -10.5q-24 0 -47 10.5t-40.5 28t-28 40t-10.5 47.5q0 24 10.5 47t28 41t40.5 28.5t47 10.5zM517 54q10 0 18.5 8.5t8.5 19.5t-8.5 19.5
t-18.5 8.5q-11 0 -19 -8.5t-8 -19.5t8 -19.5t19 -8.5zM170 308q-24 0 -47 10.5t-40.5 28.5t-28 41t-10.5 47q0 25 10.5 47.5t28 40t40.5 28t47 10.5t47 -10.5t41 -28t28.5 -40t10.5 -47.5q0 -24 -10.5 -47t-28.5 -41t-41 -28.5t-47 -10.5zM170 463q-10 0 -18.5 -8.5
t-8.5 -19.5t8.5 -19.5t18.5 -8.5q11 0 19.5 8.5t8.5 19.5t-8.5 19.5t-19.5 8.5zM490 594l98 -66l-390 -605l-99 66z" />
    <glyph glyph-name="darDahezar" unicode="&#x60a;" horiz-adv-x="1270" 
d="M1100 209q25 0 47.5 -10.5t40 -28.5t28 -41t10.5 -47q0 -25 -10.5 -47.5t-28 -40t-40 -28t-47.5 -10.5q-24 0 -47 10.5t-40.5 28t-28 40t-10.5 47.5q0 24 10.5 47t28 41t40.5 28.5t47 10.5zM1100 54q10 0 18.5 8.5t8.5 19.5t-8.5 19.5t-18.5 8.5q-11 0 -19.5 -8.5
t-8.5 -19.5t8.5 -19.5t19.5 -8.5zM809 209q25 0 47.5 -10.5t40 -28.5t28 -41t10.5 -47q0 -25 -10.5 -47.5t-28 -40t-40 -28t-47.5 -10.5q-24 0 -47 10.5t-41 28t-28.5 40t-10.5 47.5q0 24 10.5 47t28.5 41t41 28.5t47 10.5zM809 54q10 0 18.5 8.5t8.5 19.5t-8.5 19.5
t-18.5 8.5q-11 0 -19.5 -8.5t-8.5 -19.5t8.5 -19.5t19.5 -8.5zM517 209q25 0 47.5 -10.5t40 -28.5t28 -41t10.5 -47q0 -25 -10.5 -47.5t-28 -40t-40 -28t-47.5 -10.5q-24 0 -47 10.5t-40.5 28t-28 40t-10.5 47.5q0 24 10.5 47t28 41t40.5 28.5t47 10.5zM517 54
q10 0 18.5 8.5t8.5 19.5t-8.5 19.5t-18.5 8.5q-11 0 -19 -8.5t-8 -19.5t8 -19.5t19 -8.5zM170 308q-24 0 -47 10.5t-40.5 28.5t-28 41t-10.5 47q0 25 10.5 47.5t28 40t40.5 28t47 10.5t47 -10.5t41 -28t28.5 -40t10.5 -47.5q0 -24 -10.5 -47t-28.5 -41t-41 -28.5t-47 -10.5z
M170 463q-10 0 -18.5 -8.5t-8.5 -19.5t8.5 -19.5t18.5 -8.5q11 0 19.5 8.5t8.5 19.5t-8.5 19.5t-19.5 8.5zM490 594l98 -66l-390 -605l-99 66z" />
    <glyph glyph-name="virgul" unicode="&#x60c;" horiz-adv-x="275" 
d="M137 0q-37 0 -59.5 22t-22.5 72q0 60 5.5 98t22 61.5t46.5 34t80 14.5v-71q-25 -4 -39 -8t-21.5 -11t-9.5 -18t-2 -29q38 0 60.5 -18.5t22.5 -64.5q0 -41 -22.5 -61.5t-60.5 -20.5z" />
    <glyph glyph-name="tarikh.sep" unicode="&#x60d;" horiz-adv-x="418" 
d="M269 302l105 -71l-226 -341l-104 71z" />
    <glyph glyph-name="noqte_virgul" unicode="&#x61b;" horiz-adv-x="275" 
d="M137 242q-37 0 -59.5 22t-22.5 72q0 60 5.5 98t22 61.5t46.5 34t80 14.5v-71q-25 -4 -39 -8t-21.5 -11t-9.5 -18t-2 -29q38 0 60.5 -18.5t22.5 -64.5q0 -41 -22.5 -61.5t-60.5 -20.5zM137 0q-37 0 -59.5 20.5t-22.5 61.5q0 42 22.5 62.5t59.5 20.5q38 0 60.5 -20.5
t22.5 -62.5q0 -41 -22.5 -61.5t-60.5 -20.5z" />
    <glyph glyph-name="soal" unicode="&#x61f;" horiz-adv-x="429" 
d="M258 413q0 37 -11.5 51.5t-33.5 14.5q-19 0 -28 -10.5t-9 -24.5q0 -15 9.5 -27t34.5 -37q18 -18 28.5 -34t16.5 -37t8 -50t2 -72h-121q0 31 -0.5 49t-5 31.5t-13.5 26t-25 30.5q-29 34 -42 64.5t-13 68.5q0 33 12 61t33 48.5t50.5 32t64.5 11.5q86 0 122.5 -53.5
t36.5 -143.5h-116zM209 0q-32 0 -52 16.5t-20 51.5q0 37 20 53t52 16t51.5 -16t19.5 -53q0 -35 -19.5 -51.5t-51.5 -16.5z" />
    <glyph glyph-name="kashidas" unicode="&#x640;" horiz-adv-x="165" 
d="M165 137q13 0 17.5 -16t4.5 -50q0 -37 -4.5 -54t-17.5 -17h-165q-13 0 -17.5 16.5t-4.5 49.5q0 38 4.5 54.5t17.5 16.5h165z" />
    <glyph glyph-name=".an" unicode="&#x64b;" 
d="M112 170l28 -71l-242 -99l-28 71zM102 302l28 -71l-242 -99l-28 71z" />
    <glyph glyph-name=".on" unicode="&#x64c;" 
d="M4 116q-8 8 -16 23.5t-8 36.5t7.5 38t20.5 29t29 18.5t34 6.5q42 0 68 -26.5t26 -71.5q0 -30 -18.5 -55.5t-57.5 -44.5l-175 -70l-31 61v49q0 13 -5 17.5t-13 4.5h-30v72h59q21 0 32.5 -11.5t11.5 -37.5v-64zM48 170q0 -18 23 -33q14 7 19.5 16t5.5 19q0 8 -5.5 15.5
t-19.5 7.5q-13 0 -18 -8t-5 -17z" />
    <glyph glyph-name=".en" unicode="&#x64d;" 
d="M112 -132l28 -71l-242 -99l-28 71zM102 0l28 -71l-242 -99l-28 71z" />
    <glyph glyph-name=".a" unicode="&#x64e;" 
d="M107 170l28 -71l-242 -99l-28 71z" />
    <glyph glyph-name=".o" unicode="&#x64f;" 
d="M-143 71l120 45q-8 8 -16 23.5t-8 36.5t7.5 38t20.5 29t29 18.5t34 6.5q42 0 67.5 -26.5t25.5 -71.5q0 -30 -18.5 -55.5t-56.5 -44.5l-175 -70zM21 170q0 -18 23 -33q14 7 19 16t5 19q0 8 -5 15.5t-19 7.5t-18.5 -8t-4.5 -17z" />
    <glyph glyph-name=".e" unicode="&#x650;" 
d="M107 0l28 -71l-242 -99l-28 71z" />
    <glyph glyph-name=".shdd" unicode="&#x651;" 
d="M0 22q-6 -7 -16 -14.5t-21 -7.5h-38q-13 0 -28.5 4t-29 16.5t-23 36t-9.5 62.5v61h77v-70q0 -22 10 -27.5t25 -5.5h14v103h77v-103h15q15 0 25 5.5t10 27.5v70h77v-61q0 -39 -10 -62.5t-25 -36t-31.5 -16.5t-29.5 -4h-32q-11 0 -21 7.5t-16 14.5z" />
    <glyph glyph-name=".skn" unicode="&#x652;" 
d="M-103 102q0 46 29 75t74 29q46 0 74.5 -29t28.5 -75q0 -45 -28.5 -73.5t-74.5 -28.5q-45 0 -74 28.5t-29 73.5zM-29 102q0 -11 9 -19t20 -8q12 0 20.5 8t8.5 19q0 13 -8.5 21.5t-20.5 8.5q-11 0 -20 -8.5t-9 -21.5z" />
    <glyph glyph-name=".mad" unicode="&#x653;" 
d="M-17 50q-18 0 -29 -1t-19 -5.5t-17 -14.5t-23 -29l-55 38q21 33 34.5 51.5t28 26.5t34 9.5t52.5 1.5h170l-5 -77h-171z" />
    <glyph glyph-name=".thmz" unicode="&#x654;" 
d="M110 88l-188 -94l-32 67l55 25q-35 31 -35 73t28.5 68t70.5 26h46l-5 -77h-29q-17 0 -25 -7.5t-8 -18.5q0 -10 7 -16.5t18 -6.5q10 0 27 7t40 20z" />
    <glyph glyph-name=".bhmz" unicode="&#x655;" 
d="M110 -164l-188 -94l-32 67l55 25q-35 31 -35 73t28.5 68t70.5 26h46l-5 -77h-29q-17 0 -25 -7.5t-8 -18.5q0 -10 7 -16.5t18 -6.5q10 0 27 7t40 20z" />
    <glyph glyph-name=".i" unicode="&#x656;" 
d="M-39 1h77v-176h-77v176z" />
    <glyph glyph-name="sefr.arab" unicode="&#x660;" horiz-adv-x="429" 
d="M215 385q33 0 63.5 -14.5t54 -38t38 -54t14.5 -63.5t-14.5 -64t-38 -54.5t-54 -38t-63.5 -14.5t-64 14.5t-54.5 38t-38 54.5t-14.5 64t14.5 63.5t38 54t54.5 38t64 14.5zM215 165q20 0 34.5 15t14.5 35t-14.5 34.5t-34.5 14.5t-35 -14.5t-15 -34.5t15 -35t35 -15z" />
    <glyph glyph-name="yek.arab" unicode="&#x661;" horiz-adv-x="258" 
d="M87 -61v243q0 60 -3 102t-8.5 76t-13.5 64.5t-18 65.5l120 43q13 -39 22.5 -74.5t15.5 -75.5t9 -87t3 -109v-248h-127z" />
    <glyph glyph-name="do.arab" unicode="&#x662;" horiz-adv-x="462" 
d="M269 226q-38 0 -58 14q2 -17 2.5 -33t0.5 -37v-231h-127v243q0 60 -3 102t-8.5 76t-13.5 64.5t-18 65.5l120 43l14 -52l14 -52q3 -12 7 -24t10.5 -21.5t16.5 -15t27 -5.5q24 0 33.5 11.5t9.5 27.5q0 24 -16 104l121 27q17 -76 17 -137q0 -37 -10 -68.5t-29.5 -54t-47 -35
t-62.5 -12.5z" />
    <glyph glyph-name="se.arab" unicode="&#x663;" horiz-adv-x="665" 
d="M401 533q17 -76 17 -137v-9.5t-2 -9.5q11 -8 21 -11t19 -3q25 0 34.5 11.5t9.5 27.5q0 24 -16 104l120 27q17 -76 17 -137q0 -37 -10 -68.5t-29 -54t-46.5 -35t-62.5 -12.5q-27 0 -54.5 9.5t-50.5 32.5q-20 -20 -43.5 -31t-55.5 -11q-38 0 -58 14q2 -17 2.5 -33t0.5 -37
v-231h-127v243q0 60 -3 102t-8.5 76t-13.5 64.5t-18 65.5l120 43l14 -52l14 -52q3 -12 7 -24t10.5 -21.5t16.5 -15t27 -5.5q24 0 33.5 11.5t9.5 27.5q0 24 -16 104l121 27v0z" />
    <glyph glyph-name="char.arab" unicode="&#x664;" horiz-adv-x="391" 
d="M44 61q0 15 3 32t14 36.5t31.5 43.5t55.5 53q-54 17 -79 54.5t-25 88.5q0 33 12.5 63.5t35 54.5t52.5 38t65 14q33 0 59 -7.5t51 -19.5l-33 -121q-17 4 -33 7.5t-33 3.5q-29 0 -39.5 -13t-10.5 -26q0 -17 15 -28t57 -11h60v-120q-43 -31 -68 -50t-38 -29.5t-16.5 -16
t-3.5 -9.5q0 -17 28 -17h148l-6 -137h-159q-70 0 -106.5 31t-36.5 85z" />
    <glyph glyph-name="panj.arab" unicode="&#x665;" horiz-adv-x="512" 
d="M44 99q0 29 6 57.5t21 61t40.5 69.5t64.5 82l-44 44l83 93q76 -70 125 -126t77.5 -102t39.5 -85.5t11 -76.5q0 -46 -15.5 -80t-43.5 -56.5t-66.5 -34t-84.5 -11.5h-21q-96 0 -144.5 45t-48.5 120zM341 132q0 25 -18.5 64t-66.5 84q-35 -37 -60.5 -76t-25.5 -72
q0 -29 19.5 -45t52.5 -16h16q38 0 60.5 16t22.5 45z" />
    <glyph glyph-name="shish.arab" unicode="&#x666;" horiz-adv-x="451" 
d="M374 280q0 -60 3 -102t9 -76t14 -64.5t18 -65.5l-116 -44q-12 39 -22 75t-17 76t-11 87t-4 109v108q0 4 -2.5 7.5t-8.5 3.5q-2 0 -13.5 -1.5t-28 -3t-36.5 -3t-38 -1.5q-29 0 -55.5 7t-43.5 32l33 115q17 -8 36.5 -12.5t45.5 -4.5q19 0 43.5 1.5t48.5 3t45.5 3t33.5 1.5
q33 0 49.5 -21t16.5 -50v-180z" />
    <glyph glyph-name="haft.arab" unicode="&#x667;" horiz-adv-x="561" 
d="M281 159q8 52 16 95.5t21.5 87.5t35.5 92t59 110l105 -65q-39 -68 -67.5 -125.5t-50 -117.5t-39.5 -131t-36 -166h-88q-19 95 -36.5 166t-39.5 131t-50 117.5t-67 125.5l105 65q37 -62 59 -110t35.5 -92t21.5 -87.5t16 -95.5z" />
    <glyph glyph-name="hasht.arab" unicode="&#x668;" horiz-adv-x="561" 
d="M281 313q-8 -51 -16 -94.5t-21.5 -87t-35.5 -92.5t-59 -111l-105 66q39 68 67 125.5t50 117.5t39.5 130.5t36.5 165.5h88q18 -95 36 -165.5t39.5 -130.5t50 -117.5t67.5 -125.5l-105 -66q-37 62 -59 111t-35.5 92.5t-21.5 87t-16 94.5z" />
    <glyph glyph-name="noh.arab" unicode="&#x669;" horiz-adv-x="429" 
d="M263 -61v246q-15 -4 -31.5 -6.5t-39.5 -2.5q-39 0 -67.5 12.5t-46.5 34.5t-26.5 50.5t-8.5 61.5q0 39 13 76t36 65.5t56 45.5t72 17q45 0 76.5 -20t51 -53.5t28.5 -77t9 -91.5v-358h-122zM263 330q0 12 -3 25.5t-9.5 25t-16.5 19t-23 7.5q-23 0 -35 -16.5t-12 -34.5
q0 -20 12 -28.5t33 -8.5q17 0 28.5 2.5t25.5 8.5z" />
    <glyph glyph-name="darsad" unicode="&#x66a;" horiz-adv-x="687" 
d="M517 209q25 0 47.5 -10.5t40 -28.5t28 -41t10.5 -47q0 -25 -10.5 -47.5t-28 -40t-40 -28t-47.5 -10.5q-24 0 -47 10.5t-40.5 28t-28 40t-10.5 47.5q0 24 10.5 47t28 41t40.5 28.5t47 10.5zM517 54q10 0 18.5 8.5t8.5 19.5t-8.5 19.5t-18.5 8.5q-11 0 -19 -8.5t-8 -19.5
t8 -19.5t19 -8.5zM170 308q-24 0 -47 10.5t-40.5 28.5t-28 41t-10.5 47q0 25 10.5 47.5t28 40t40.5 28t47 10.5t47 -10.5t41 -28t28.5 -40t10.5 -47.5q0 -24 -10.5 -47t-28.5 -41t-41 -28.5t-47 -10.5zM170 463q-10 0 -18.5 -8.5t-8.5 -19.5t8.5 -19.5t18.5 -8.5
q11 0 19.5 8.5t8.5 19.5t-8.5 19.5t-19.5 8.5zM490 594l98 -66l-390 -605l-99 66z" />
    <glyph glyph-name="sad.sep" unicode="&#x66b;" horiz-adv-x="418" 
d="M269 302l105 -71l-226 -341l-104 71z" />
    </font>
</defs>
</svg>
