<?xml version="1.0" standalone="no"?>
<!DOCTYPE svg PUBLIC "-//W3C//DTD SVG 1.1//EN" "http://www.w3.org/Graphics/SVG/1.1/DTD/svg11.dtd" >
<svg xmlns="http://www.w3.org/2000/svg" xmlns:xlink="http://www.w3.org/1999/xlink" version="1.1">
<metadata>
Created by FontForge 20170731 at Sat Sep 30 20:33:32 2017
 By Aleksey,,,
Copyright (c) 2015 by Reza Bakhtiarifard / Bakh. All rights reserved.
</metadata>
<defs>
<font id="YekanBakh-Medium" horiz-adv-x="0" >
  <font-face 
    font-family="Yekan Bakh Medium"
    font-weight="500"
    font-stretch="normal"
    units-per-em="1000"
    panose-1="1 0 5 4 0 0 0 2 0 4"
    ascent="800"
    descent="-200"
    bbox="-178 -489 1335 927"
    underline-thickness="25"
    underline-position="-154"
    unicode-range="U+000A-FFFC"
  />
<missing-glyph horiz-adv-x="540" 
d="M462 0h-396v610h396v-610zM145 522v-434h238v434h-238z" />
    <glyph glyph-name="allah" unicode="&#x627;&#xfedf;&#xfee0;&#xfeea;" horiz-adv-x="1235" arabic-form="isolated" 
d="M323 465h80v-290q0 -43 13.5 -65t57.5 -22h73q36 0 54 16.5t18 46.5v246h82v-224q0 -43 21.5 -64t61.5 -21h27q35 0 53.5 16.5t18.5 46.5v336h82v-345q0 -35 -11.5 -61.5t-31 -44.5t-45.5 -27t-56 -9h-40q-35 0 -67.5 13t-53.5 51q-23 -38 -54 -51t-61 -13h-74
q-48 0 -80.5 18.5t-47.5 66.5q-12 -15 -29 -24t-35.5 -14t-37.5 -7t-35 -2q-75 0 -113.5 38.5t-38.5 122.5q0 37 10.5 72.5t31.5 63.5t52.5 45t73.5 17h101v68zM227 315q-47 0 -70.5 -30t-23.5 -79q0 -46 22 -64.5t68 -18.5q47 0 73.5 19t26.5 48v125h-96zM627 927h52v-174
h-52v174zM679 680v-128h35q23 0 38 11.5t15 43.5v73h52v-61q0 -39 -10 -62.5t-25 -36t-31.5 -16.5t-29.5 -4h-37q-10 0 -17.5 5t-15.5 12q-7 -7 -14.5 -12t-17.5 -5h-40q-13 0 -29 4t-30.5 16.5t-24 36t-9.5 62.5v61h53v-73q0 -32 14.5 -43.5t37.5 -11.5h34v128h52z
M1086 620h82v-620h-82v620z" />
    <glyph glyph-name="la.aa" unicode="&#xfedf;&#xfe82;" horiz-adv-x="488" arabic-form="isolated" 
d="M67 477h82v-389h118q35 0 53 16.5t18 46.5v469h83v-478q0 -35 -11.5 -61.5t-31 -44.5t-46 -27t-56.5 -9h-209v477zM61 583q-20 0 -31 -3.5t-19 -23.5l-21 -46l-53 25l28 62q9 19 17.5 31.5t19 19.5t24 9.5t32.5 2.5h192l-3 -77h-186z" />
    <glyph glyph-name="la.aa.fina" unicode="&#xfee0;&#xfe82;" horiz-adv-x="515" arabic-form="final" 
d="M67 0v477h82v-389h112q77 0 77 73v459h83v-459q0 -41 24.5 -57t56.5 -16h13q22 0 22 -43q0 -45 -22 -45h-17q-37 0 -68.5 13t-52.5 51q-23 -38 -53 -51t-63 -13h-194zM61 583q-20 0 -31 -3.5t-19 -23.5l-21 -46l-53 25l28 62q9 19 17.5 31.5t19 19.5t24 9.5t32.5 2.5h192
l-3 -77h-186z" />
    <glyph glyph-name="la.thmz" unicode="&#xfedf;&#xfe84;" horiz-adv-x="488" arabic-form="isolated" 
d="M67 457h82v-369h118q35 0 53 16.5t18 46.5v469h83v-478q0 -35 -11.5 -61.5t-31 -44.5t-46 -27t-56.5 -9h-209v457zM217 598l-187 -94l-22 46l65 32q-28 10 -40.5 33t-12.5 47q0 42 27 68t69 26h47l-5 -52h-33q-25 0 -38.5 -13.5t-13.5 -33.5t14 -32.5t32 -12.5
q13 0 32.5 8.5t44.5 22.5z" />
    <glyph glyph-name="la.thmz.fina" unicode="&#xfee0;&#xfe84;" horiz-adv-x="515" arabic-form="final" 
d="M67 0v457h82v-369h112q77 0 77 73v459h83v-459q0 -41 24.5 -57t56.5 -16h13q22 0 22 -43q0 -45 -22 -45h-17q-37 0 -68.5 13t-52.5 51q-23 -38 -53 -51t-63 -13h-194zM217 598l-187 -94l-22 46l65 32q-28 10 -40.5 33t-12.5 47q0 42 27 68t69 26h47l-5 -52h-33
q-25 0 -38.5 -13.5t-13.5 -33.5t14 -32.5t32 -12.5q13 0 32.5 8.5t44.5 22.5z" />
    <glyph glyph-name="la.bhmz" unicode="&#xfedf;&#xfe88;" horiz-adv-x="488" arabic-form="isolated" 
d="M67 620h82v-532h118q35 0 53 16.5t18 46.5v469h83v-478q0 -35 -11.5 -61.5t-31 -44.5t-46 -27t-56.5 -9h-209v620zM241 -261l-187 -94l-22 46l65 32q-28 10 -40.5 33t-12.5 47q0 42 27 68t69 26h47l-5 -52h-33q-25 0 -38.5 -13.5t-13.5 -33.5t14 -32.5t32 -12.5
q13 0 32.5 8.5t44.5 22.5z" />
    <glyph glyph-name="la.bhmz.fina" unicode="&#xfee0;&#xfe88;" horiz-adv-x="515" arabic-form="final" 
d="M67 0v620h82v-532h112q77 0 77 73v459h83v-459q0 -41 24.5 -57t56.5 -16h13q22 0 22 -43q0 -45 -22 -45h-17q-37 0 -68.5 13t-52.5 51q-23 -38 -53 -51t-63 -13h-194zM241 -261l-187 -94l-22 46l65 32q-28 10 -40.5 33t-12.5 47q0 42 27 68t69 26h47l-5 -52h-33
q-25 0 -38.5 -13.5t-13.5 -33.5t14 -32.5t32 -12.5q13 0 32.5 8.5t44.5 22.5z" />
    <glyph glyph-name="la" unicode="&#xfedf;&#xfe8e;" horiz-adv-x="488" arabic-form="isolated" 
d="M67 620h82v-532h118q35 0 53 16.5t18 46.5v469h83v-478q0 -35 -11.5 -61.5t-31 -44.5t-46 -27t-56.5 -9h-209v620z" />
    <glyph glyph-name="la.fina" unicode="&#xfee0;&#xfe8e;" horiz-adv-x="515" arabic-form="final" 
d="M67 0v620h82v-532h112q77 0 77 73v459h83v-459q0 -41 24.5 -57t56.5 -16h13q22 0 22 -43q0 -45 -22 -45h-17q-37 0 -68.5 13t-52.5 51q-23 -38 -53 -51t-63 -13h-194z" />
    <glyph glyph-name="la.tvasla" unicode="&#xfedf;&#xfb51;" horiz-adv-x="488" 
d="M67 465h82v-377h118q35 0 53 16.5t18 46.5v469h83v-478q0 -35 -11.5 -61.5t-31 -44.5t-46 -27t-56.5 -9h-209v465zM35 590q39 76 73 107.5t71 31.5q33 0 57.5 -26t24.5 -65q0 -16 -5.5 -33.5t-18 -32.5t-33.5 -24.5t-51 -9.5h-133l-29 25v94l44 5v-72zM155 587
q26 0 43 12t17 37q0 17 -11 30t-31 13q-24 0 -46.5 -24t-48.5 -68h77z" />
    <glyph glyph-name="la.tvasla.fina" unicode="&#xfee0;&#xfb51;" horiz-adv-x="515" 
d="M67 0v465h82v-377h112q77 0 77 73v459h83v-459q0 -41 24.5 -57t56.5 -16h13q22 0 22 -43q0 -45 -22 -45h-17q-37 0 -68.5 13t-52.5 51q-23 -38 -53 -51t-63 -13h-194zM35 590q39 76 73 107.5t71 31.5q33 0 57.5 -26t24.5 -65q0 -16 -5.5 -33.5t-18 -32.5t-33.5 -24.5
t-51 -9.5h-133l-29 25v94l44 5v-72zM155 587q26 0 43 12t17 37q0 17 -11 30t-31 13q-24 0 -46.5 -24t-48.5 -68h77z" />
    <glyph glyph-name="lellah" unicode="&#xfedf;&#x650;&#xfee0;&#x654;&#xfeea;" horiz-adv-x="1029" 
d="M323 465h80v-290q0 -43 13.5 -65t57.5 -22h73q36 0 54 16.5t18 46.5v246h82v-224q0 -43 21.5 -64t61.5 -21h27q35 0 53.5 16.5t18.5 46.5v336h82v-345q0 -35 -11.5 -61.5t-31 -44.5t-45.5 -27t-56 -9h-40q-35 0 -67.5 13t-53.5 51q-23 -38 -54 -51t-61 -13h-74
q-48 0 -80.5 18.5t-47.5 66.5q-12 -15 -29 -24t-35.5 -14t-37.5 -7t-35 -2q-75 0 -113.5 38.5t-38.5 122.5q0 37 10.5 72.5t31.5 63.5t52.5 45t73.5 17h101v68zM227 315q-47 0 -70.5 -30t-23.5 -79q0 -46 22 -64.5t68 -18.5q47 0 73.5 19t26.5 48v125h-96zM627 927h52v-174
h-52v174zM679 680v-128h35q23 0 38 11.5t15 43.5v73h52v-61q0 -39 -10 -62.5t-25 -36t-31.5 -16.5t-29.5 -4h-37q-10 0 -17.5 5t-15.5 12q-7 -7 -14.5 -12t-17.5 -5h-40q-13 0 -29 4t-30.5 16.5t-24 36t-9.5 62.5v61h53v-73q0 -32 14.5 -43.5t37.5 -11.5h34v128h52z" />
    <glyph glyph-name="hmz" unicode="&#x621;" horiz-adv-x="438" arabic-form="isolated" 
d="M55 69l101 51q-50 16 -74 52t-24 80q0 35 12.5 65t34 51.5t50.5 34t61 12.5q25 0 46 -6t44 -19l-26 -78q-12 5 -28.5 10t-32.5 5q-38 0 -61 -22t-23 -57q0 -32 22.5 -53.5t62.5 -21.5q25 0 55 12t83 41l37 -75l-304 -157z" />
    <glyph glyph-name="alef.aa" unicode="&#x622;" horiz-adv-x="216" arabic-form="isolated" 
d="M67 477h82v-477h-82v477zM56 583q-20 0 -31 -3.5t-19 -23.5l-21 -46l-53 25l28 62q9 19 17.5 31.5t19 19.5t24 9.5t32.5 2.5h192l-3 -77h-186z" />
    <glyph glyph-name="alef.thmz" unicode="&#x623;" horiz-adv-x="216" arabic-form="isolated" 
d="M67 457h82v-457h-82v457zM209 598l-187 -94l-22 46l65 32q-28 10 -40.5 33t-12.5 47q0 42 27 68t69 26h47l-5 -52h-33q-25 0 -38.5 -13.5t-13.5 -33.5t14 -32.5t32 -12.5q13 0 32.5 8.5t44.5 22.5z" />
    <glyph glyph-name="vav.thmz" unicode="&#x624;" horiz-adv-x="448" arabic-form="isolated" 
d="M145 -155q41 0 72 12.5t51.5 33.5t31.5 49t13 60h-85q-51 0 -84 11t-52 32t-26.5 51.5t-7.5 68.5t11 72.5t32 60.5t52.5 41.5t73.5 15.5q33 0 63.5 -11t53.5 -34.5t36.5 -61.5t13.5 -92v-138q0 -51 -16.5 -98t-48 -82.5t-76.5 -56.5t-102 -21h-104l-6 87h104zM136 168
q0 -43 20.5 -61.5t79.5 -18.5h79v62q0 63 -24.5 90.5t-68.5 27.5q-41 0 -63.5 -26.5t-22.5 -73.5zM318 506l-187 -94l-22 46l65 32q-28 10 -40.5 33t-12.5 47q0 42 27 68t69 26h47l-5 -52h-33q-25 0 -38.5 -13.5t-13.5 -33.5t14 -32.5t32 -12.5q13 0 32.5 8.5t44.5 22.5z
" />
    <glyph glyph-name="alef.bhmz" unicode="&#x625;" horiz-adv-x="216" arabic-form="isolated" 
d="M67 620h82v-620h-82v620zM217 -261l-187 -94l-22 46l65 32q-28 10 -40.5 33t-12.5 47q0 42 27 68t69 26h47l-5 -52h-33q-25 0 -38.5 -13.5t-13.5 -33.5t14 -32.5t32 -12.5q13 0 32.5 8.5t44.5 22.5z" />
    <glyph glyph-name="ye.thmz" unicode="&#x626;" horiz-adv-x="676" arabic-form="isolated" 
d="M360 -155q41 0 75 9.5t59 26t38.5 39t13.5 49.5q0 24 -13 40t-50 16h-173v181q0 38 11.5 70t33.5 55t53.5 36t70.5 13h115l5 -88h-123q-34 0 -59 -21.5t-25 -64.5v-94h106q38 0 63 -9.5t39.5 -26.5t20.5 -40.5t6 -51.5q0 -48 -20 -89t-54.5 -71.5t-81 -48t-100.5 -17.5
h-86q-112 0 -174 69t-62 189v177h81v-174q0 -78 39 -126t128 -48h63zM273 396l-187 -94l-22 46l65 32q-28 10 -40.5 33t-12.5 47q0 42 27 68t69 26h47l-5 -52h-33q-25 0 -38.5 -13.5t-13.5 -33.5t14 -32.5t32 -12.5q13 0 32.5 8.5t44.5 22.5z" />
    <glyph glyph-name="alef" unicode="&#x627;" horiz-adv-x="216" arabic-form="isolated" 
d="M67 620h82v-620h-82v620z" />
    <glyph glyph-name="be" unicode="&#x628;" horiz-adv-x="764" arabic-form="isolated" 
d="M206 0q-41 0 -70.5 12.5t-48 33.5t-27 49t-8.5 59v138h82v-118q0 -39 19 -62.5t71 -23.5h329q77 0 77 73v128h82v-144q0 -36 -12 -63t-32.5 -45t-47 -27.5t-55.5 -9.5h-359zM430 -200h-98v86h98v-86z" />
    <glyph glyph-name="te.marbuta" unicode="&#x629;" horiz-adv-x="453" arabic-form="isolated" 
d="M49 154q0 30 8 56.5t23.5 53.5t39.5 55.5t57 62.5l-46 46l56 60q62 -61 103.5 -106t67 -81t36 -67.5t10.5 -65.5q0 -36 -13.5 -67t-38 -53.5t-57.5 -35t-72 -12.5t-71.5 11.5t-55 31.5t-35 48.5t-12.5 62.5zM322 172q0 16 -4 31t-15 32.5t-29.5 39t-47.5 49.5
q-31 -30 -50 -53t-29 -41t-13.5 -32.5t-3.5 -28.5q0 -34 24.5 -57.5t69.5 -23.5t71.5 25t26.5 59zM327 563h-91v84h91v-84zM193 563h-91v84h91v-84z" />
    <glyph glyph-name="te" unicode="&#x62a;" horiz-adv-x="764" arabic-form="isolated" 
d="M206 0q-41 0 -70.5 12.5t-48 33.5t-27 49t-8.5 59v138h82v-118q0 -39 19 -62.5t71 -23.5h329q77 0 77 73v128h82v-144q0 -36 -12 -63t-32.5 -45t-47 -27.5t-55.5 -9.5h-359zM494 374h-91v84h91v-84zM360 374h-91v84h91v-84z" />
    <glyph glyph-name="the" unicode="&#x62b;" horiz-adv-x="764" arabic-form="isolated" 
d="M206 0q-41 0 -70.5 12.5t-48 33.5t-27 49t-8.5 59v138h82v-118q0 -39 19 -62.5t71 -23.5h329q77 0 77 73v128h82v-144q0 -36 -12 -63t-32.5 -45t-47 -27.5t-55.5 -9.5h-359zM428 503h-92v83h92v-83zM494 374h-91v84h91v-84zM360 374h-91v84h91v-84z" />
    <glyph glyph-name="jim" unicode="&#x62c;" horiz-adv-x="539" arabic-form="isolated" 
d="M397 222q-7 18 -14.5 31t-19 22t-28 13.5t-42.5 4.5h-208l6 88h214q27 0 54 -6t51.5 -26.5t45 -59t34.5 -104.5l-198 -115q-48 -28 -80 -54t-51.5 -51.5t-27.5 -51t-8 -52.5q0 -75 42 -117t136 -42h184l-5 -87h-182q-69 0 -118 18.5t-79.5 51t-45 75.5t-14.5 92
q0 43 10.5 80.5t35 72t64 67.5t96.5 66zM403 -155h-98v86h98v-86z" />
    <glyph glyph-name="him" unicode="&#x62d;" horiz-adv-x="539" arabic-form="isolated" 
d="M397 222q-7 18 -14.5 31t-19 22t-28 13.5t-42.5 4.5h-208l6 88h214q27 0 54 -6t51.5 -26.5t45 -59t34.5 -104.5l-198 -115q-48 -28 -80 -54t-51.5 -51.5t-27.5 -51t-8 -52.5q0 -75 42 -117t136 -42h184l-5 -87h-182q-69 0 -118 18.5t-79.5 51t-45 75.5t-14.5 92
q0 43 10.5 80.5t35 72t64 67.5t96.5 66z" />
    <glyph glyph-name="khe" unicode="&#x62e;" horiz-adv-x="539" arabic-form="isolated" 
d="M397 222q-7 18 -14.5 31t-19 22t-28 13.5t-42.5 4.5h-208l6 88h214q27 0 54 -6t51.5 -26.5t45 -59t34.5 -104.5l-198 -115q-48 -28 -80 -54t-51.5 -51.5t-27.5 -51t-8 -52.5q0 -75 42 -117t136 -42h184l-5 -87h-182q-69 0 -118 18.5t-79.5 51t-45 75.5t-14.5 92
q0 43 10.5 80.5t35 72t64 67.5t96.5 66zM302 490h-98v86h98v-86z" />
    <glyph glyph-name="dal" unicode="&#x62f;" horiz-adv-x="515" arabic-form="isolated" 
d="M416 244q26 -30 38 -59.5t12 -57.5q0 -27 -10 -50t-28.5 -40t-46.5 -27t-64 -10h-274l-5 88h267q32 0 49 14.5t17 37.5q0 26 -23 51l-178 203l64 60z" />
    <glyph glyph-name="zal" unicode="&#x630;" horiz-adv-x="515" arabic-form="isolated" 
d="M416 244q26 -30 38 -59.5t12 -57.5q0 -27 -10 -50t-28.5 -40t-46.5 -27t-64 -10h-274l-5 88h267q32 0 49 14.5t17 37.5q0 26 -23 51l-178 203l64 60zM282 550h-98v86h98v-86z" />
    <glyph glyph-name="re" unicode="&#x631;" horiz-adv-x="233" arabic-form="isolated" 
d="M178 16q0 -56 -18.5 -103.5t-50.5 -82t-76 -53.5t-95 -19h-61l-5 87h46q48 0 81.5 14.5t55 38.5t31.5 54.5t10 63.5v273h82v-273v0z" />
    <glyph glyph-name="ze" unicode="&#x632;" horiz-adv-x="233" arabic-form="isolated" 
d="M178 16q0 -56 -18.5 -103.5t-50.5 -82t-76 -53.5t-95 -19h-61l-5 87h46q48 0 81.5 14.5t55 38.5t31.5 54.5t10 63.5v273h82v-273v0zM181 412h-98v86h98v-86z" />
    <glyph glyph-name="sin" unicode="&#x633;" horiz-adv-x="1124" arabic-form="isolated" 
d="M842 161q0 -41 22 -57t50 -16q35 0 54.5 19t19.5 54v128h82v-132q0 -76 -40.5 -116.5t-112.5 -40.5q-35 0 -66 13t-52 51q-23 -38 -55.5 -51t-65.5 -13q-31 0 -52 9.5t-35 25.5v-19q0 -51 -17 -98t-48.5 -82.5t-77 -56.5t-102.5 -21h-61q-112 0 -174 69t-62 189v177h81
v-174q0 -78 39 -126t128 -48h44q45 0 77.5 14t53.5 38t31 56t10 67v269h81v-131q0 -33 22.5 -51.5t58.5 -18.5q86 0 86 73v128h81v-128z" />
    <glyph glyph-name="shin" unicode="&#x634;" horiz-adv-x="1124" arabic-form="isolated" 
d="M842 161q0 -41 22 -57t50 -16q35 0 54.5 19t19.5 54v128h82v-132q0 -76 -40.5 -116.5t-112.5 -40.5q-35 0 -66 13t-52 51q-23 -38 -55.5 -51t-65.5 -13q-31 0 -52 9.5t-35 25.5v-19q0 -51 -17 -98t-48.5 -82.5t-77 -56.5t-102.5 -21h-61q-112 0 -174 69t-62 189v177h81
v-174q0 -78 39 -126t128 -48h44q45 0 77.5 14t53.5 38t31 56t10 67v269h81v-131q0 -33 22.5 -51.5t58.5 -18.5q86 0 86 73v128h81v-128zM847 541h-92v83h92v-83zM913 412h-91v84h91v-84zM779 412h-91v84h91v-84z" />
    <glyph glyph-name="sad" unicode="&#x635;" horiz-adv-x="1176" arabic-form="isolated" 
d="M1046 185q0 21 -7 40t-20 33t-30.5 22.5t-39.5 8.5q-46 0 -95.5 -47.5t-111.5 -153.5h210q38 0 66 23.5t28 73.5zM660 90q43 77 81 131.5t74 89t70.5 50.5t69.5 16q39 0 70.5 -15t54 -41t35 -61t12.5 -75q0 -34 -10.5 -67t-32.5 -59.5t-55.5 -42.5t-79.5 -16h-260
q-32 0 -57.5 9.5t-40.5 29.5v-23q0 -51 -17 -98t-48.5 -82.5t-77 -56.5t-102.5 -21h-61q-112 0 -174 69t-62 189v177h81v-174q0 -78 39 -126t128 -48h44q45 0 77.5 14t53.5 38t31 56t10 67v269h81v-116q0 -33 15.5 -56t50.5 -27z" />
    <glyph glyph-name="zad" unicode="&#x636;" horiz-adv-x="1176" arabic-form="isolated" 
d="M1046 185q0 21 -7 40t-20 33t-30.5 22.5t-39.5 8.5q-46 0 -95.5 -47.5t-111.5 -153.5h210q38 0 66 23.5t28 73.5zM660 90q43 77 81 131.5t74 89t70.5 50.5t69.5 16q39 0 70.5 -15t54 -41t35 -61t12.5 -75q0 -34 -10.5 -67t-32.5 -59.5t-55.5 -42.5t-79.5 -16h-260
q-32 0 -57.5 9.5t-40.5 29.5v-23q0 -51 -17 -98t-48.5 -82.5t-77 -56.5t-102.5 -21h-61q-112 0 -174 69t-62 189v177h81v-174q0 -78 39 -126t128 -48h44q45 0 77.5 14t53.5 38t31 56t10 67v269h81v-116q0 -33 15.5 -56t50.5 -27zM962 482h-98v86h98v-86z" />
    <glyph glyph-name="ta" unicode="&#x637;" horiz-adv-x="658" arabic-form="isolated" 
d="M136 620h82v-292v-64.5t-2 -62.5q60 94 113.5 135t107.5 41q39 0 70.5 -15t54 -41t35 -61t12.5 -75q0 -34 -10.5 -67t-32.5 -59.5t-55.5 -42.5t-79.5 -16h-382l-6 88h93v532zM527 185q0 21 -7 40t-19.5 33t-30 22.5t-39.5 8.5q-23 0 -46 -11t-48.5 -35t-54.5 -62.5
t-65 -92.5h217q38 0 65.5 23.5t27.5 73.5z" />
    <glyph glyph-name="za" unicode="&#x638;" horiz-adv-x="658" arabic-form="isolated" 
d="M136 620h82v-292v-64.5t-2 -62.5q60 94 113.5 135t107.5 41q39 0 70.5 -15t54 -41t35 -61t12.5 -75q0 -34 -10.5 -67t-32.5 -59.5t-55.5 -42.5t-79.5 -16h-382l-6 88h93v532zM527 185q0 21 -7 40t-19.5 33t-30 22.5t-39.5 8.5q-23 0 -46 -11t-48.5 -35t-54.5 -62.5
t-65 -92.5h217q38 0 65.5 23.5t27.5 73.5zM492 494h-98v86h98v-86z" />
    <glyph glyph-name="ein" unicode="&#x639;" horiz-adv-x="513" arabic-form="isolated" 
d="M170 46q-19 16 -31 35.5t-19 39.5t-10 38.5t-3 33.5q0 38 13 71t36 57t55.5 38t71.5 14q35 0 68 -11t71 -36l-35 -70q-32 16 -55.5 22.5t-48.5 6.5q-21 0 -38.5 -8t-30 -20.5t-19 -29.5t-6.5 -35q0 -21 7.5 -39.5t20 -33t29.5 -23t36 -8.5h164l-6 -88h-156
q-37 0 -66 -12.5t-49 -33.5t-30.5 -48t-10.5 -56q0 -68 39 -108t134 -40h175l-5 -87h-173q-69 0 -117 18t-77.5 48.5t-43 72.5t-13.5 90q0 63 30 116.5t93 85.5z" />
    <glyph glyph-name="qein" unicode="&#x63a;" horiz-adv-x="513" arabic-form="isolated" 
d="M170 46q-19 16 -31 35.5t-19 39.5t-10 38.5t-3 33.5q0 38 13 71t36 57t55.5 38t71.5 14q35 0 68 -11t71 -36l-35 -70q-32 16 -55.5 22.5t-48.5 6.5q-21 0 -38.5 -8t-30 -20.5t-19 -29.5t-6.5 -35q0 -21 7.5 -39.5t20 -33t29.5 -23t36 -8.5h164l-6 -88h-156
q-37 0 -66 -12.5t-49 -33.5t-30.5 -48t-10.5 -56q0 -68 39 -108t134 -40h175l-5 -87h-173q-69 0 -117 18t-77.5 48.5t-43 72.5t-13.5 90q0 63 30 116.5t93 85.5zM324 489h-98v86h98v-86z" />
    <glyph glyph-name="fe" unicode="&#x641;" horiz-adv-x="852" arabic-form="isolated" 
d="M459 250q0 27 10.5 56t31.5 52.5t52 38.5t72 15q39 0 70.5 -10t54 -33.5t35 -61t12.5 -91.5v-48q0 -78 -46.5 -123t-146.5 -45h-396q-41 0 -70.5 12.5t-48 33.5t-27 49t-8.5 59v138h82v-118q0 -39 19 -62.5t72 -23.5h259h36h27t22.5 -1t23.5 -3q-46 17 -73 34.5t-41 37
t-18 42.5t-4 52zM535 237q0 -17 3.5 -31.5t19 -29.5t47 -31.5t87.5 -37.5q12 11 19 30t7 41v30q0 53 -21.5 84t-74.5 31q-21 0 -37.5 -7.5t-27.5 -19.5t-16.5 -27.5t-5.5 -31.5zM675 506h-98v86h98v-86z" />
    <glyph glyph-name="qaf" unicode="&#x642;" horiz-adv-x="706" arabic-form="isolated" 
d="M401 -155q41 0 72 12.5t52 33.5t32.5 49t13.5 60h-85q-51 0 -84.5 11t-52.5 32t-26.5 51.5t-7.5 68.5t11 72.5t32.5 60.5t53 41.5t73.5 15.5q33 0 63.5 -11t53 -34.5t36 -61.5t13.5 -92v-138q0 -51 -17 -98t-48.5 -82.5t-76.5 -56.5t-102 -21h-122q-112 0 -174 69
t-62 189v177h81v-174q0 -78 39 -126t128 -48h104zM394 168q0 -43 20.5 -61.5t79.5 -18.5h79v62q0 63 -24 90.5t-69 27.5q-41 0 -63.5 -26.5t-22.5 -73.5zM598 459h-91v84h91v-84zM464 459h-91v84h91v-84z" />
    <glyph glyph-name="kaf.arab" unicode="&#x643;" horiz-adv-x="764" arabic-form="isolated" 
d="M408 209v81q0 11 -5 16.5t-19 5.5h-127v123q0 52 28 81t82 29h54l6 -63h-56q-54 0 -54 -53v-53h96q32 0 44 -20t12 -43v-104h-61zM208 0q-41 0 -70.5 12.5t-48 33.5t-27 49t-8.5 59v138h82v-118q0 -39 19 -62.5t72 -23.5h312q36 0 56.5 19t20.5 54v459h81v-463
q0 -76 -40 -116.5t-112 -40.5h-337z" />
    <glyph glyph-name="lam" unicode="&#x644;" horiz-adv-x="661" arabic-form="isolated" 
d="M594 23q0 -55 -17.5 -103.5t-49.5 -84.5t-78 -56.5t-103 -20.5h-61q-112 0 -174 69t-62 189v177h81v-174q0 -78 39 -126t128 -48h44q45 0 77.5 14t53.5 38t31 56t10 67v600h81v-597z" />
    <glyph glyph-name="mim" unicode="&#x645;" horiz-adv-x="629" arabic-form="isolated" 
d="M404 0q-69 0 -111.5 36.5t-42.5 106.5v57q0 30 6.5 51t24.5 37h-33q-57 0 -84.5 -26.5t-27.5 -70.5v-433h-82v436q0 35 12.5 67.5t36.5 57t60 39.5t84 15h181q41 0 69 -11.5t45.5 -31t25 -44.5t7.5 -52v-88q0 -38 -13 -65.5t-36.5 -45.5t-54.5 -26.5t-67 -8.5zM411 88
q41 0 63 17.5t22 52.5v56q0 29 -16.5 50t-53.5 21h-28q-37 0 -53.5 -21t-16.5 -53v-50q0 -35 20.5 -54t62.5 -19z" />
    <glyph glyph-name="nun" unicode="&#x646;" horiz-adv-x="649" arabic-form="isolated" 
d="M594 23q0 -55 -17.5 -103.5t-49.5 -84.5t-78 -56.5t-103 -20.5h-61q-112 0 -174 69t-62 189v177h81v-174q0 -78 39 -126t128 -48h44q45 0 77.5 14t53.5 38t31 56t10 67v269h81v-266zM356 308h-98v86h98v-86z" />
    <glyph glyph-name="he" unicode="&#x647;" horiz-adv-x="453" arabic-form="isolated" 
d="M49 154q0 30 8 56.5t23.5 53.5t39.5 55.5t57 62.5l-46 46l56 60q62 -61 103.5 -106t67 -81t36 -67.5t10.5 -65.5q0 -36 -13.5 -67t-38 -53.5t-57.5 -35t-72 -12.5t-71.5 11.5t-55 31.5t-35 48.5t-12.5 62.5zM322 172q0 16 -4 31t-15 32.5t-29.5 39t-47.5 49.5
q-31 -30 -50 -53t-29 -41t-13.5 -32.5t-3.5 -28.5q0 -34 24.5 -57.5t69.5 -23.5t71.5 25t26.5 59z" />
    <glyph glyph-name="vav" unicode="&#x648;" horiz-adv-x="448" arabic-form="isolated" 
d="M145 -155q41 0 72 12.5t51.5 33.5t31.5 49t13 60h-85q-51 0 -84 11t-52 32t-26.5 51.5t-7.5 68.5t11 72.5t32 60.5t52.5 41.5t73.5 15.5q33 0 63.5 -11t53.5 -34.5t36.5 -61.5t13.5 -92v-138q0 -51 -16.5 -98t-48 -82.5t-76.5 -56.5t-102 -21h-104l-6 87h104zM136 168
q0 -43 20.5 -61.5t79.5 -18.5h79v62q0 63 -24.5 90.5t-68.5 27.5q-41 0 -63.5 -26.5t-22.5 -73.5z" />
    <glyph glyph-name="alef.maksura" unicode="&#x649;" horiz-adv-x="676" arabic-form="isolated" 
d="M360 -155q41 0 75 9.5t59 26t38.5 39t13.5 49.5q0 24 -13 40t-50 16h-173v181q0 38 11.5 70t33.5 55t53.5 36t70.5 13h115l5 -88h-123q-34 0 -59 -21.5t-25 -64.5v-94h106q38 0 63 -9.5t39.5 -26.5t20.5 -40.5t6 -51.5q0 -48 -20 -89t-54.5 -71.5t-81 -48t-100.5 -17.5
h-86q-112 0 -174 69t-62 189v177h81v-174q0 -78 39 -126t128 -48h63z" />
    <glyph glyph-name="ye.arab" unicode="&#x64a;" horiz-adv-x="676" arabic-form="isolated" 
d="M360 -155q41 0 75 9.5t59 26t38.5 39t13.5 49.5q0 24 -13 40t-50 16h-173v181q0 38 11.5 70t33.5 55t53.5 36t70.5 13h115l5 -88h-123q-34 0 -59 -21.5t-25 -64.5v-94h106q38 0 63 -9.5t39.5 -26.5t20.5 -40.5t6 -51.5q0 -48 -20 -89t-54.5 -71.5t-81 -48t-100.5 -17.5
h-86q-112 0 -174 69t-62 189v177h81v-174q0 -78 39 -126t128 -48h63zM434 -428h-88v84h88v-84zM298 -428h-89v84h89v-84z" />
    <glyph glyph-name="alef.vasla" unicode="&#x671;" horiz-adv-x="216" arabic-form="isolated" 
d="M67 465h82v-465h-82v465zM33 590q39 76 73 107.5t71 31.5q33 0 57.5 -26t24.5 -65q0 -16 -5.5 -33.5t-18 -32.5t-33.5 -24.5t-51 -9.5h-133l-29 25v94l44 5v-72zM153 587q26 0 43 12t17 37q0 17 -11 30t-31 13q-24 0 -46.5 -24t-48.5 -68h77z" />
    <glyph glyph-name="pe" unicode="&#x67e;" horiz-adv-x="764" arabic-form="isolated" 
d="M206 0q-41 0 -70.5 12.5t-48 33.5t-27 49t-8.5 59v138h82v-118q0 -39 19 -62.5t71 -23.5h329q77 0 77 73v128h82v-144q0 -36 -12 -63t-32.5 -45t-47 -27.5t-55.5 -9.5h-359zM432 -327h-92v84h92v-84zM498 -198h-91v84h91v-84zM364 -198h-91v84h91v-84z" />
    <glyph glyph-name="che" unicode="&#x686;" horiz-adv-x="539" arabic-form="isolated" 
d="M397 222q-7 18 -14.5 31t-19 22t-28 13.5t-42.5 4.5h-208l6 88h214q27 0 54 -6t51.5 -26.5t45 -59t34.5 -104.5l-198 -115q-48 -28 -80 -54t-51.5 -51.5t-27.5 -51t-8 -52.5q0 -75 42 -117t136 -42h184l-5 -87h-182q-69 0 -118 18.5t-79.5 51t-45 75.5t-14.5 92
q0 43 10.5 80.5t35 72t64 67.5t96.5 66zM400.204 -222.424h-84.4082v77.0684h84.4082v-77.0684zM460.758 -104.068h-83.4902v77.0684h83.4902v-77.0684zM337.815 -104.068h-83.4912v77.0684h83.4912v-77.0684z" />
    <glyph glyph-name="re.bv.fina" unicode="&#x695;" horiz-adv-x="267" 
d="M175 16q0 -56 -18 -103.5t-49.5 -82t-75 -53.5t-94.5 -19h-61l-5 87h46q48 0 81.5 14.5t55 38.5t31.5 54.5t10 63.5v273h82v-131q0 -33 21.5 -51.5t56.5 -18.5h11q22 0 22 -43q0 -45 -22 -45h-11q-22 0 -44 8t-37 29v-21zM143 -282l42 -26l-92 -181h-44l-92 181l42 26
l72 -146z" />
    <glyph glyph-name="je" unicode="&#x698;" horiz-adv-x="233" arabic-form="isolated" 
d="M178 16q0 -56 -18.5 -103.5t-50.5 -82t-76 -53.5t-95 -19h-61l-5 87h46q48 0 81.5 14.5t55 38.5t31.5 54.5t10 63.5v273h82v-273v0zM170 541h-92v83h92v-83zM236 412h-91v84h91v-84zM102 412h-91v84h91v-84z" />
    <glyph glyph-name="veh" unicode="&#x6a4;" horiz-adv-x="850" arabic-form="isolated" 
d="M456 250q0 27 11 56t32 52.5t52 38.5t72 15q39 0 70.5 -10t54 -33.5t35 -61t12.5 -91.5v-48q0 -78 -46.5 -123t-146.5 -45h-396q-41 0 -70.5 12.5t-48 33.5t-27 49t-8.5 59v138h82v-118q0 -39 19 -62.5t71 -23.5h259h37h27t22.5 -1t23.5 -3q-47 17 -74 34.5t-41 37
t-18 42.5t-4 52zM532 237q0 -17 3.5 -31.5t19.5 -29.5t47.5 -31.5t87.5 -37.5q12 11 19 30t7 41v30q0 53 -21.5 84t-74.5 31q-21 0 -37.5 -7.5t-28 -19.5t-17 -27.5t-5.5 -31.5zM670 635h-92v83h92v-83zM736 506h-91v84h91v-84zM602 506h-91v84h91v-84z" />
    <glyph glyph-name="kaf" unicode="&#x6a9;" horiz-adv-x="788" arabic-form="isolated" 
d="M578 88q37 0 51 15t14 37q0 16 -6 33.5t-29 40.5l-203 203v91l331 128l20 -82l-270 -103l165 -166q25 -25 40.5 -45.5t24.5 -38.5t12 -36t3 -37q0 -34 -11 -58t-30.5 -39.5t-45.5 -23t-57 -7.5h-379q-41 0 -70.5 12.5t-48 33.5t-27 49t-8.5 59v138h82v-118
q0 -39 19 -62.5t72 -23.5h351z" />
    <glyph glyph-name="gaf" unicode="&#x6af;" horiz-adv-x="788" arabic-form="isolated" 
d="M399 653l301 118l13 -60l-311 -123zM578 88q37 0 51 15t14 37q0 16 -6 33.5t-29 40.5l-203 203v91l331 128l20 -82l-270 -103l165 -166q25 -25 40.5 -45.5t24.5 -38.5t12 -36t3 -37q0 -34 -11 -58t-30.5 -39.5t-45.5 -23t-57 -7.5h-379q-41 0 -70.5 12.5t-48 33.5t-27 49
t-8.5 59v138h82v-118q0 -39 19 -62.5t72 -23.5h351z" />
    <glyph glyph-name="lam.tv.init" unicode="&#x6b5;" horiz-adv-x="250" 
d="M25 88q36 0 56.5 19t20.5 54v296h82v-300q0 -76 -40.5 -116.5t-112.5 -40.5h-31q-13 0 -17.5 10.5t-4.5 31.5q0 24 4.5 35t17.5 11h25zM212 719l42 -26l-92 -181h-44l-92 181l42 26l72 -146z" />
    <glyph glyph-name="lam.tvmedi" unicode="&#x6b5;" horiz-adv-x="278" 
d="M25 88q77 0 77 73v296h82v-296q0 -20 6.5 -34t17.5 -22.5t25.5 -12.5t29.5 -4h15q13 0 17.5 -10.5t4.5 -32.5q0 -23 -4.5 -34t-17.5 -11h-18q-36 0 -67.5 13t-52.5 51q-23 -38 -53 -51t-62 -13h-25q-13 0 -17.5 10.5t-4.5 31.5q0 24 4.5 35t17.5 11h25zM212 719l42 -26
l-92 -181h-44l-92 181l42 26l72 -146z" />
    <glyph glyph-name="lam.tv.fina" unicode="&#x6b5;" horiz-adv-x="683" 
d="M672 0q-22 0 -44 8t-37 29v-18q0 -54 -17 -101.5t-49 -83t-77 -56t-102 -20.5h-61q-112 0 -174 69t-62 189v177h81v-174q0 -78 39 -126t128 -48h44q45 0 77.5 14t53.5 38t31 56t10 67v600h81v-462q0 -33 22 -51.5t56 -18.5h11q23 0 23 -43q0 -45 -23 -45h-11zM394 619
l42 -26l-92 -181h-44l-92 181l42 26l72 -146z" />
    <glyph glyph-name="he.thmz" unicode="&#x6c0;" horiz-adv-x="453" arabic-form="isolated" 
d="M173 571q-45 0 -65.5 21.5t-20.5 50.5q0 23 12.5 50.5t43.5 74.5h121l-5 -61h-92q-13 -19 -18 -30t-5 -20q0 -10 7.5 -18t27.5 -8h192l-3 -60h-195zM49 154q0 30 8 56.5t23.5 53.5t39.5 55.5t57 62.5l-46 46l56 60q62 -61 103.5 -106t67 -81t36 -67.5t10.5 -65.5
q0 -36 -13.5 -67t-38 -53.5t-57.5 -35t-72 -12.5t-71.5 11.5t-55 31.5t-35 48.5t-12.5 62.5zM322 172q0 16 -4 31t-15 32.5t-29.5 39t-47.5 49.5q-31 -30 -50 -53t-29 -41t-13.5 -32.5t-3.5 -28.5q0 -34 24.5 -57.5t69.5 -23.5t71.5 25t26.5 59z" />
    <glyph glyph-name="he.thmz.goal.fina" unicode="&#x6c2;" horiz-adv-x="485" 
d="M219 123q47 0 72.5 19t25.5 48v125h-90q-47 0 -70.5 -30t-23.5 -79q0 -46 21.5 -64.5t64.5 -18.5zM397 172q0 -38 15 -61t53 -23h20q13 0 17.5 -10.5t4.5 -32.5q0 -23 -4.5 -34t-17.5 -11h-20q-48 0 -80.5 18.5t-47.5 66.5q-12 -15 -28.5 -24t-34.5 -14t-37 -7t-35 -2
q-72 0 -110 40t-38 121q0 37 10.5 72.5t31.5 63.5t52.5 45t73.5 17h95v68h80v-293zM376 634l-187 -94l-22 46l65 32q-28 10 -40.5 33t-12.5 47q0 42 27 68t69 26h47l-5 -52h-33q-25 0 -38.5 -13.5t-13.5 -33.5t14 -32.5t32 -12.5q13 0 32.5 8.5t44.5 22.5z" />
    <glyph glyph-name="vav.tv" unicode="&#x6c6;" horiz-adv-x="448" arabic-form="isolated" 
d="M145 -155q41 0 72 12.5t51.5 33.5t31.5 49t13 60h-85q-51 0 -84 11t-52 32t-26.5 51.5t-7.5 68.5t11 72.5t32 60.5t52.5 41.5t73.5 15.5q33 0 63.5 -11t53.5 -34.5t36.5 -61.5t13.5 -92v-138q0 -51 -16.5 -98t-48 -82.5t-76.5 -56.5t-102 -21h-104l-6 87h104zM136 168
q0 -43 20.5 -61.5t79.5 -18.5h79v62q0 63 -24.5 90.5t-68.5 27.5q-41 0 -63.5 -26.5t-22.5 -73.5zM297 625l42 -26l-92 -181h-44l-92 181l42 26l72 -146z" />
    <glyph glyph-name="vav.t2p.fina" unicode="&#x6ca;" horiz-adv-x="483" 
d="M145 -155q41 0 72 12.5t51.5 33.5t31.5 49t13 60h-85q-51 0 -84 11t-52 32t-26.5 51.5t-7.5 68.5t11 72.5t32 60.5t52.5 41.5t73.5 15.5q33 0 63.5 -11t53.5 -34.5t36.5 -61.5t13.5 -92v-66h89q12 0 16.5 -10.5t4.5 -32.5q0 -23 -4.5 -34t-16.5 -11h-91q-2 -49 -19.5 -93
t-48.5 -77t-75 -52.5t-98 -19.5h-104l-6 87h104zM136 168q0 -43 20.5 -61.5t79.5 -18.5h79v62q0 63 -24.5 90.5t-68.5 27.5q-41 0 -63.5 -26.5t-22.5 -73.5zM340 459h-91v84h91v-84zM206 459h-91v84h91v-84z" />
    <glyph glyph-name="ye" unicode="&#x6cc;" horiz-adv-x="676" arabic-form="isolated" 
d="M360 -155q41 0 75 9.5t59 26t38.5 39t13.5 49.5q0 24 -13 40t-50 16h-173v181q0 38 11.5 70t33.5 55t53.5 36t70.5 13h115l5 -88h-123q-34 0 -59 -21.5t-25 -64.5v-94h106q38 0 63 -9.5t39.5 -26.5t20.5 -40.5t6 -51.5q0 -48 -20 -89t-54.5 -71.5t-81 -48t-100.5 -17.5
h-86q-112 0 -174 69t-62 189v177h81v-174q0 -78 39 -126t128 -48h63z" />
    <glyph glyph-name="ye.tv.init" unicode="&#x6ce;" horiz-adv-x="305" 
d="M91 88q36 0 56.5 19t20.5 54v128h82v-132q0 -76 -40.5 -116.5t-112.5 -40.5h-97q-13 0 -17.5 10.5t-4.5 31.5q0 24 4.5 35t17.5 11h91zM229 -198h-88v84h88v-84zM93 -198h-89v84h89v-84zM200 585l42 -26l-92 -181h-44l-92 181l42 26l72 -146z" />
    <glyph glyph-name="ye.tv.medi" unicode="&#x6ce;" horiz-adv-x="340" 
d="M73 88q78 0 78 73v128h82v-128q0 -20 6.5 -34t17.5 -22.5t25.5 -12.5t29.5 -4h28q23 0 23 -43q0 -45 -23 -45h-31q-36 0 -67.5 13t-52.5 51q-23 -38 -52.5 -51t-63.5 -13h-73q-13 0 -17.5 10.5t-4.5 31.5q0 24 4.5 35t17.5 11h73zM280 -198h-88v84h88v-84zM144 -198h-89
v84h89v-84zM261 585l42 -26l-92 -181h-44l-92 181l42 26l72 -146z" />
    <glyph glyph-name="ye.tv.fina" unicode="&#x6ce;" horiz-adv-x="695" 
d="M377 -155q47 0 79.5 8t52.5 22t28.5 32.5t8.5 38.5q0 22 -11.5 38t-40.5 16h-156l5 88h352q22 0 22 -43q0 -45 -22 -45h-93q13 -11 17.5 -27t4.5 -37q0 -27 -12 -58t-39.5 -57.5t-72.5 -44.5t-112 -18h-103q-112 0 -174 69t-62 189v177h81v-174q0 -78 39 -126t128 -48h80
zM369 406l42 -26l-92 -181h-44l-92 181l42 26l72 -146z" />
    <glyph glyph-name="ae.fina" unicode="&#x6d5;" horiz-adv-x="485" 
d="M219 123q47 0 72.5 19t25.5 48v125h-90q-47 0 -70.5 -30t-23.5 -79q0 -46 21.5 -64.5t64.5 -18.5zM397 172q0 -38 15 -61t53 -23h20q13 0 17.5 -10.5t4.5 -32.5q0 -23 -4.5 -34t-17.5 -11h-20q-48 0 -80.5 18.5t-47.5 66.5q-12 -15 -28.5 -24t-34.5 -14t-37 -7t-35 -2
q-72 0 -110 40t-38 121q0 37 10.5 72.5t31.5 63.5t52.5 45t73.5 17h95v68h80v-293z" />
    <glyph glyph-name="alef.vasla.fina" unicode="&#x671;" horiz-adv-x="238" arabic-form="final" 
d="M203 0q-27 0 -52 7.5t-43.5 25.5t-29.5 47.5t-11 73.5v311h82v-293q0 -38 16.5 -61t52.5 -23h20q22 0 22 -43q0 -45 -22 -45h-35zM33 590q39 76 73 107.5t71 31.5q33 0 57.5 -26t24.5 -65q0 -16 -5.5 -33.5t-18 -32.5t-33.5 -24.5t-51 -9.5h-133l-29 25v94l44 5v-72z
M153 587q26 0 43 12t17 37q0 17 -11 30t-31 13q-24 0 -46.5 -24t-48.5 -68h77z" />
    <glyph glyph-name="pe.fina" unicode="&#x67e;" horiz-adv-x="810" arabic-form="final" 
d="M553 88q77 0 77 73v128h82v-128q0 -20 6.5 -34t18 -22.5t26 -12.5t29.5 -4h18q13 0 17.5 -10.5t4.5 -32.5q0 -23 -4.5 -34t-17.5 -11h-21q-36 0 -67.5 13t-53.5 51q-23 -38 -52.5 -51t-62.5 -13h-347q-41 0 -70.5 12.5t-48 33.5t-27 49t-8.5 59v138h82v-118
q0 -39 19 -62.5t71 -23.5h329zM432 -327h-92v84h92v-84zM498 -198h-91v84h91v-84zM364 -198h-91v84h91v-84z" />
    <glyph glyph-name="pe.init" unicode="&#x67e;" horiz-adv-x="305" arabic-form="initial" 
d="M91 88q36 0 56.5 19t20.5 54v128h82v-132q0 -76 -40.5 -116.5t-112.5 -40.5h-97q-13 0 -17.5 10.5t-4.5 31.5q0 24 4.5 35t17.5 11h91zM166 -327h-92v84h92v-84zM232 -198h-91v84h91v-84zM98 -198h-91v84h91v-84z" />
    <glyph glyph-name="pe.medi" unicode="&#x67e;" horiz-adv-x="340" arabic-form="medial" 
d="M73 88q78 0 78 73v128h82v-128q0 -20 6.5 -34t17.5 -22.5t25.5 -12.5t29.5 -4h28q23 0 23 -43q0 -45 -23 -45h-31q-36 0 -67.5 13t-52.5 51q-23 -38 -52.5 -51t-63.5 -13h-73q-13 0 -17.5 10.5t-4.5 31.5q0 24 4.5 35t17.5 11h73zM202 -327h-92v84h92v-84zM268 -198h-91
v84h91v-84zM134 -198h-91v84h91v-84z" />
    <glyph glyph-name="veh.fina" unicode="&#x6a4;" horiz-adv-x="879" arabic-form="final" 
d="M623 316q-43 0 -68 -27.5t-25 -67.5q0 -21 8.5 -39.5t22.5 -33.5t32 -26.5t36 -19.5q15 8 30.5 19.5t28 26.5t20.5 32.5t8 38.5q0 43 -25.5 70t-67.5 27zM629 404q42 0 73 -14.5t51.5 -38t31 -53t10.5 -59.5q0 -47 -20 -84t-58 -67h162q22 0 22 -43q0 -45 -22 -45h-106
q-46 0 -82 3t-56 14q-15 -6 -35 -9.5t-42 -5t-42 -2t-35 -0.5h-275q-41 0 -70.5 12.5t-48 33.5t-27 49t-8.5 59v138h82v-118q0 -39 19 -62.5t71 -23.5h312q-42 30 -63.5 65.5t-21.5 79.5q0 33 12.5 64t35.5 54.5t56 38t74 14.5zM670 621h-92v83h92v-83zM736 492h-91v84h91
v-84zM602 492h-91v84h91v-84z" />
    <glyph glyph-name="veh.init" unicode="&#x6a4;" horiz-adv-x="475" arabic-form="initial" 
d="M132 88q29 0 47 -0.5t41 -3.5q-47 17 -74 34.5t-40.5 37t-17.5 42.5t-4 52q0 27 10.5 56t31.5 52.5t52.5 38.5t72.5 15q39 0 70.5 -10t54 -33.5t35 -61t12.5 -91.5v-48q0 -78 -46.5 -123t-146.5 -45h-230q-13 0 -17.5 10.5t-4.5 31.5q0 24 4.5 35t17.5 11h132zM247 323
q-21 0 -37 -7.5t-27.5 -19.5t-17 -27.5t-5.5 -31.5q0 -17 3.5 -31.5t19 -29.5t47.5 -31.5t88 -37.5q12 11 18.5 30t6.5 41v30q0 53 -21.5 84t-74.5 31zM297 632h-92v83h92v-83zM363 503h-91v84h91v-84zM229 503h-91v84h91v-84z" />
    <glyph glyph-name="veh.medi" unicode="&#x6a4;" horiz-adv-x="512" arabic-form="medial" 
d="M169 88q-42 30 -63.5 65.5t-21.5 79.5q0 33 12.5 64t35.5 54.5t56.5 38t74.5 14.5t72 -14.5t51.5 -38t31 -53t10.5 -59.5q0 -91 -78 -151h162q22 0 22 -43q0 -45 -22 -45h-106q-46 0 -82 3t-56 14q-14 -6 -34.5 -9.5t-42 -5t-42 -2t-34.5 -0.5h-115q-13 0 -17.5 10.5
t-4.5 31.5q0 24 4.5 35t17.5 11h169zM256 316q-42 0 -67.5 -27.5t-25.5 -67.5q0 -21 8.5 -39.5t23 -33.5t32 -26.5t35.5 -19.5q15 8 30.5 19.5t28 26.5t20.5 32.5t8 38.5q0 43 -25.5 70t-67.5 27zM308 621h-92v83h92v-83zM374 492h-91v84h91v-84zM240 492h-91v84h91v-84z
" />
    <glyph glyph-name="che.fina" unicode="&#x686;" horiz-adv-x="566" arabic-form="final" 
d="M397 222q-7 18 -14.5 31t-19 22t-28 13.5t-42.5 4.5h-208l6 88h214q27 0 54 -6t51.5 -26.5t45 -59t34.5 -104.5l-65 -38q17 -35 37.5 -47t52.5 -12h51q13 0 17.5 -10.5t4.5 -32.5q0 -23 -4.5 -34t-17.5 -11h-57q-33 0 -56 8.5t-39 23.5t-26.5 36t-19.5 46l-76 -44
q-48 -28 -80 -54t-51.5 -51.5t-27.5 -51t-8 -52.5q0 -75 42 -117t136 -42h184l-5 -87h-182q-69 0 -118 18.5t-79.5 51t-45 75.5t-14.5 92q0 43 10.5 80.5t35 72t64 67.5t96.5 66zM361.411 -230.859h-76.8223v70.1416h76.8223v-70.1416zM416.522 -123.142h-75.9873v70.1416
h75.9873v-70.1416zM304.63 -123.142h-75.9873v70.1416h75.9873v-70.1416z" />
    <glyph glyph-name="che.init" unicode="&#x686;" horiz-adv-x="547" arabic-form="initial" 
d="M288 58q-26 -16 -51 -27t-53.5 -18t-62.5 -10t-78 -3h-43q-13 0 -17.5 10.5t-4.5 31.5q0 24 4.5 35t17.5 11h46q38 0 67.5 2t54.5 7t47 13.5t45 21.5l149 86q-8 18 -15.5 31.5t-19.5 23.5t-29 15t-43 5h-218l6 88h224q27 0 54.5 -7t52 -28t45.5 -60t35 -103zM323 -327
h-92v84h92v-84zM389 -198h-91v84h91v-84zM255 -198h-91v84h91v-84z" />
    <glyph glyph-name="che.medi" unicode="&#x686;" horiz-adv-x="585" arabic-form="medial" 
d="M436 144q16 -32 35.5 -44t51.5 -12h62q13 0 17.5 -10.5t4.5 -32.5q0 -23 -4.5 -34t-17.5 -11h-67q-33 0 -56 8.5t-39 23t-26.5 34.5t-18.5 44l-90 -52q-26 -16 -51 -27t-53.5 -18t-62.5 -10t-78 -3h-43q-13 0 -17.5 10.5t-4.5 31.5q0 24 4.5 35t17.5 11h46q38 0 67.5 2
t54.5 7t47 13.5t45 21.5l149 86q-8 18 -15.5 31.5t-19.5 23.5t-29 15t-43 5h-218l6 88h224q27 0 54.5 -7t52 -28t45.5 -60t35 -103zM323 -327h-92v84h92v-84zM389 -198h-91v84h91v-84zM255 -198h-91v84h91v-84z" />
    <glyph glyph-name="je.fina" unicode="&#x698;" horiz-adv-x="267" arabic-form="final" 
d="M175 16q0 -56 -18 -103.5t-49.5 -82t-75 -53.5t-94.5 -19h-61l-5 87h46q48 0 81.5 14.5t55 38.5t31.5 54.5t10 63.5v273h82v-131q0 -33 21.5 -51.5t56.5 -18.5h11q22 0 22 -43q0 -45 -22 -45h-11q-22 0 -44 8t-37 29v-21zM170 541h-92v83h92v-83zM236 412h-91v84h91v-84z
M102 412h-91v84h91v-84z" />
    <glyph glyph-name="kaf.fina" unicode="&#x6a9;" horiz-adv-x="933" arabic-form="final" 
d="M405 417v91l331 128l20 -82l-270 -103l165 -166q48 -48 82.5 -81.5t59.5 -55.5t43.5 -34t33.5 -18t30 -7t33 -1q13 0 17.5 -10.5t4.5 -32.5q0 -23 -4.5 -34t-17.5 -11q-29 0 -52.5 4t-46.5 16t-50 34t-64 58q0 -30 -10.5 -51t-28.5 -34.5t-42.5 -20t-51.5 -6.5h-379
q-41 0 -70.5 12.5t-48 33.5t-27 49t-8.5 59v138h82v-118q0 -40 19 -63t72 -23h351q37 0 51 15t14 37q0 16 -6 33.5t-29 40.5z" />
    <glyph glyph-name="kaf.init" unicode="&#x6a9;" horiz-adv-x="466" arabic-form="initial" 
d="M256 88q37 0 51 15t14 37q0 16 -5.5 33.5t-28.5 40.5l-204 203v91l332 128l19 -82l-270 -103l165 -166q24 -25 39.5 -45t24.5 -38.5t12.5 -36.5t3.5 -37q0 -34 -11 -58t-30 -39.5t-45.5 -23t-57.5 -7.5h-265q-13 0 -17.5 10.5t-4.5 31.5q0 24 4.5 35t17.5 11h256z" />
    <glyph glyph-name="kaf.medi" unicode="&#x6a9;" horiz-adv-x="611" arabic-form="medial" 
d="M256 88q37 0 51 15t14 37q0 16 -5.5 33.5t-28.5 40.5l-204 203v91l332 128l19 -82l-270 -103l165 -166q48 -48 82.5 -81.5t59.5 -55.5t43.5 -34t33.5 -18t30 -7t33 -1q13 0 17.5 -10.5t4.5 -32.5q0 -23 -4.5 -34t-17.5 -11q-29 0 -52.5 4t-46.5 16t-50 34t-63 58
q0 -30 -11 -51t-29 -34.5t-42 -20t-52 -6.5h-265q-13 0 -17.5 10.5t-4.5 31.5q0 24 4.5 35t17.5 11h256z" />
    <glyph glyph-name="gaf.fina" unicode="&#x6af;" horiz-adv-x="933" arabic-form="final" 
d="M399 653l301 118l13 -60l-311 -123zM405 417v91l331 128l20 -82l-270 -103l165 -166q48 -48 82.5 -81.5t59.5 -55.5t43.5 -34t33.5 -18t30 -7t33 -1q13 0 17.5 -10.5t4.5 -32.5q0 -23 -4.5 -34t-17.5 -11q-29 0 -52.5 4t-46.5 16t-50 34t-64 58q0 -30 -10.5 -51
t-28.5 -34.5t-42.5 -20t-51.5 -6.5h-379q-41 0 -70.5 12.5t-48 33.5t-27 49t-8.5 59v138h82v-118q0 -40 19 -63t72 -23h351q37 0 51 15t14 37q0 16 -6 33.5t-29 40.5z" />
    <glyph glyph-name="gaf.init" unicode="&#x6af;" horiz-adv-x="466" arabic-form="initial" 
d="M80 653l300 118l14 -60l-311 -123zM256 88q37 0 51 15t14 37q0 16 -5.5 33.5t-28.5 40.5l-204 203v91l332 128l19 -82l-270 -103l165 -166q24 -25 39.5 -45t24.5 -38.5t12.5 -36.5t3.5 -37q0 -34 -11 -58t-30 -39.5t-45.5 -23t-57.5 -7.5h-265q-13 0 -17.5 10.5
t-4.5 31.5q0 24 4.5 35t17.5 11h256z" />
    <glyph glyph-name="gaf.medi" unicode="&#x6af;" horiz-adv-x="611" arabic-form="medial" 
d="M80 653l300 118l14 -60l-311 -123zM256 88q37 0 51 15t14 37q0 16 -5.5 33.5t-28.5 40.5l-204 203v91l332 128l19 -82l-270 -103l165 -166q48 -48 82.5 -81.5t59.5 -55.5t43.5 -34t33.5 -18t30 -7t33 -1q13 0 17.5 -10.5t4.5 -32.5q0 -23 -4.5 -34t-17.5 -11
q-29 0 -52.5 4t-46.5 16t-50 34t-63 58q0 -30 -11 -51t-29 -34.5t-42 -20t-52 -6.5h-265q-13 0 -17.5 10.5t-4.5 31.5q0 24 4.5 35t17.5 11h256z" />
    <glyph glyph-name="he.thmz.fina" unicode="&#x6c0;" horiz-adv-x="485" arabic-form="final" 
d="M194 504q-46 0 -66 21.5t-20 50.5q0 23 12.5 50.5t42.5 74.5h121l-5 -60h-91q-14 -20 -19 -31t-5 -19q0 -11 7.5 -18.5t28.5 -7.5h191l-3 -61h-194zM219 123q47 0 72.5 19t25.5 48v125h-90q-47 0 -70.5 -30t-23.5 -79q0 -46 21.5 -64.5t64.5 -18.5zM397 172q0 -38 15 -61
t53 -23h20q13 0 17.5 -10.5t4.5 -32.5q0 -23 -4.5 -34t-17.5 -11h-20q-48 0 -80.5 18.5t-47.5 66.5q-12 -15 -28.5 -24t-34.5 -14t-37 -7t-35 -2q-72 0 -110 40t-38 121q0 37 10.5 72.5t31.5 63.5t52.5 45t73.5 17h175v-225z" />
    <glyph glyph-name="he.dochashmi.fina" unicode="&#x6be;" horiz-adv-x="633" arabic-form="final" 
d="M431 209q0 38 -19.5 62t-59.5 24q-42 0 -64.5 -30t-22.5 -87v-246q0 -45 17 -63.5t45 -23.5l91 117q36 45 62 70.5t49 37.5t47 15t57 3q22 0 22 -43q0 -45 -22 -45q-28 0 -49 -2t-41 -13t-42.5 -33.5t-53.5 -62.5l-98 -131q-34 0 -63 9.5t-50.5 30t-33.5 52.5t-12 76v248
q0 36 7.5 73t26 66.5t50.5 48.5t81 19q37 0 65.5 -12.5t47.5 -33.5t29 -49.5t10 -61.5q0 -66 -39.5 -118t-103.5 -94.5t-145.5 -78t-165.5 -67.5l-26 79q82 29 155 60.5t128.5 64.5t88 68t32.5 71z" />
    <glyph glyph-name="he.dochashmi.init" unicode="&#x6be;" horiz-adv-x="708" arabic-form="initial" 
d="M253 311q-42 0 -67.5 -27.5t-25.5 -67.5q0 -21 8.5 -39t23 -32.5t32 -26t35.5 -20.5q15 9 30.5 20.5t28 25.5t20.5 31.5t8 38.5q0 43 -25.5 70t-67.5 27zM0 0q-13 0 -17.5 10.5t-4.5 31.5q0 24 4.5 35t17.5 11h169q-39 27 -62 61.5t-23 78.5q0 33 12 63.5t34.5 53.5
t55.5 37t74 14t71.5 -14t50.5 -37t30 -52t10 -59q0 -45 -19.5 -80.5t-58.5 -65.5h160q32 0 49 14.5t17 37.5q0 24 -24 54l-175 207l61 57l177 -211q28 -34 39 -63t11 -57q0 -27 -10 -50t-28.5 -40t-46.5 -27t-64 -10h-110q-46 0 -81.5 3t-56.5 14q-14 -6 -34.5 -9.5t-42 -5
t-42 -2t-34.5 -0.5h-109z" />
    <glyph glyph-name="he.dochashmi.medi" unicode="&#x6be;" horiz-adv-x="532" arabic-form="medial" 
d="M89 88v86q0 36 7.5 73t26 66.5t50.5 48.5t81 19q37 0 65.5 -12.5t48 -33.5t29 -49.5t9.5 -61.5q0 -47 -19.5 -86t-52.5 -68t-77 -46.5t-93 -20.5v-71q0 -45 17 -63.5t46 -23.5l90 117q36 45 62 70.5t49 37.5t47 15t57 3q13 0 17.5 -10.5t4.5 -32.5q0 -23 -4.5 -34
t-17.5 -11q-28 0 -48.5 -2t-41 -13t-43 -33.5t-53.5 -62.5l-98 -131q-34 0 -63 9.5t-50.5 30t-33.5 52.5t-12 76v74h-89q-13 0 -17.5 10.5t-4.5 31.5q0 24 4.5 35t17.5 11h89zM164 85q43 2 74 13.5t51.5 29t30.5 38.5t10 43q0 38 -19.5 62t-59.5 24q-42 0 -64.5 -30
t-22.5 -87v-93z" />
    <glyph glyph-name="vav.tv.fina" unicode="&#x6c6;" horiz-adv-x="483" arabic-form="final" 
d="M145 -155q41 0 72 12.5t51.5 33.5t31.5 49t13 60h-85q-51 0 -84 11t-52 32t-26.5 51.5t-7.5 68.5t11 72.5t32 60.5t52.5 41.5t73.5 15.5q33 0 63.5 -11t53.5 -34.5t36.5 -61.5t13.5 -92v-66h89q12 0 16.5 -10.5t4.5 -32.5q0 -23 -4.5 -34t-16.5 -11h-91q-2 -49 -19.5 -93
t-48.5 -77t-75 -52.5t-98 -19.5h-104l-6 87h104zM136 168q0 -43 20.5 -61.5t79.5 -18.5h79v62q0 63 -24.5 90.5t-68.5 27.5q-41 0 -63.5 -26.5t-22.5 -73.5zM297 625l42 -26l-92 -181h-44l-92 181l42 26l72 -146z" />
    <glyph glyph-name="alef.maksura.init" unicode="&#x649;" horiz-adv-x="305" arabic-form="initial" 
d="M91 88q36 0 56.5 19t20.5 54v128h82v-132q0 -76 -40.5 -116.5t-112.5 -40.5h-97q-13 0 -17.5 10.5t-4.5 31.5q0 24 4.5 35t17.5 11h91z" />
    <glyph glyph-name="alef.maksura.medi" unicode="&#x649;" horiz-adv-x="340" arabic-form="medial" 
d="M73 88q78 0 78 73v128h82v-128q0 -20 6.5 -34t17.5 -22.5t25.5 -12.5t29.5 -4h28q23 0 23 -43q0 -45 -23 -45h-31q-36 0 -67.5 13t-52.5 51q-23 -38 -52.5 -51t-63.5 -13h-73q-13 0 -17.5 10.5t-4.5 31.5q0 24 4.5 35t17.5 11h73z" />
    <glyph glyph-name="ye.fina" unicode="&#x6cc;" horiz-adv-x="695" arabic-form="final" 
d="M377 -155q47 0 79.5 8t52.5 22t28.5 32.5t8.5 38.5q0 22 -11.5 38t-40.5 16h-156l5 88h352q22 0 22 -43q0 -45 -22 -45h-93q13 -11 17.5 -27t4.5 -37q0 -27 -12 -58t-39.5 -57.5t-72.5 -44.5t-112 -18h-103q-112 0 -174 69t-62 189v177h81v-174q0 -78 39 -126t128 -48h80
z" />
    <glyph glyph-name="ye.init" unicode="&#x6cc;" horiz-adv-x="305" arabic-form="initial" 
d="M91 88q36 0 56.5 19t20.5 54v128h82v-132q0 -76 -40.5 -116.5t-112.5 -40.5h-97q-13 0 -17.5 10.5t-4.5 31.5q0 24 4.5 35t17.5 11h91zM229 -198h-88v84h88v-84zM93 -198h-89v84h89v-84z" />
    <glyph glyph-name="ye.medi" unicode="&#x6cc;" horiz-adv-x="340" arabic-form="medial" 
d="M73 88q78 0 78 73v128h82v-128q0 -20 6.5 -34t17.5 -22.5t25.5 -12.5t29.5 -4h28q23 0 23 -43q0 -45 -23 -45h-31q-36 0 -67.5 13t-52.5 51q-23 -38 -52.5 -51t-63.5 -13h-73q-13 0 -17.5 10.5t-4.5 31.5q0 24 4.5 35t17.5 11h73zM280 -198h-88v84h88v-84zM144 -198h-89
v84h89v-84z" />
    <glyph glyph-name=".shdd.on" unicode="&#xfc5e;" arabic-form="isolated" 
d="M11 316q-21 14 -32 34t-11 42q0 20 7.5 37.5t20 30t29.5 20t36 7.5q42 0 68.5 -27t26.5 -69q0 -31 -19 -57.5t-66 -47.5l-163 -67l-22 43v72q0 22 -18 22h-38v49h55q20 0 31 -10t11 -36v-76zM15 390q0 -17 12 -32t32 -25q20 8 34.5 22.5t14.5 34.5q0 17 -12 32.5
t-35 15.5q-24 0 -35 -15.5t-11 -32.5zM0 17q-7 -7 -15 -12t-18 -5h-32q-13 0 -29 4t-30.5 16.5t-24 36t-9.5 62.5v62h52v-73q0 -33 15 -44.5t38 -11.5h27v129h52v-129h27q23 0 38 11.5t15 44.5v73h51v-62q0 -39 -10 -62.5t-24.5 -36t-31 -16.5t-29.5 -4h-29q-11 0 -18.5 5
t-14.5 12z" />
    <glyph glyph-name=".shdd.en" unicode="&#xfc5f;" arabic-form="isolated" 
d="M0 342q-7 -7 -15 -12t-18 -5h-32q-13 0 -29 4t-30.5 16.5t-24 36t-9.5 62.5v62h52v-73q0 -33 15 -44.5t38 -11.5h27v129h52v-129h27q23 0 38 11.5t15 44.5v73h51v-62q0 -39 -10 -62.5t-24.5 -36t-31 -16.5t-29.5 -4h-29q-11 0 -18.5 5t-14.5 12zM107 146l19 -49l-233 -97
l-19 48zM107 267l19 -49l-233 -97l-19 48z" />
    <glyph glyph-name=".shdd.a" unicode="&#xfc60;" arabic-form="isolated" 
d="M107 368l19 -49l-233 -97l-19 48zM0 17q-7 -7 -15 -12t-18 -5h-32q-13 0 -29 4t-30.5 16.5t-24 36t-9.5 62.5v62h52v-73q0 -33 15 -44.5t38 -11.5h27v129h52v-129h27q23 0 38 11.5t15 44.5v73h51v-62q0 -39 -10 -62.5t-24.5 -36t-31 -16.5t-29.5 -4h-29q-11 0 -18.5 5
t-14.5 12z" />
    <glyph glyph-name=".shdd.o" unicode="&#xfc61;" arabic-form="isolated" 
d="M-136 273l124 49q-21 14 -32 34t-11 42q0 20 7.5 37.5t20 30t29.5 20t37 7.5q42 0 67.5 -27t25.5 -69q0 -31 -19 -57.5t-65 -47.5l-163 -67zM-8 396q0 -17 12 -32t32 -25q20 8 34.5 22.5t14.5 34.5q0 17 -11.5 32.5t-34.5 15.5q-25 0 -36 -15.5t-11 -32.5zM0 17
q-7 -7 -15 -12t-18 -5h-32q-13 0 -29 4t-30.5 16.5t-24 36t-9.5 62.5v62h52v-73q0 -33 15 -44.5t38 -11.5h27v129h52v-129h27q23 0 38 11.5t15 44.5v73h51v-62q0 -39 -10 -62.5t-24.5 -36t-31 -16.5t-29.5 -4h-29q-11 0 -18.5 5t-14.5 12z" />
    <glyph glyph-name=".shdd.e" unicode="&#xfc62;" arabic-form="isolated" 
d="M0 208q-7 -7 -15 -12t-18 -5h-32q-13 0 -29 4t-30.5 16.5t-24 36t-9.5 62.5v62h52v-73q0 -33 15 -44.5t38 -11.5h27v129h52v-129h27q23 0 38 11.5t15 44.5v73h51v-62q0 -39 -10 -62.5t-24.5 -36t-31 -16.5t-29.5 -4h-29q-11 0 -18.5 5t-14.5 12zM107 146l19 -49l-233 -97
l-19 48z" />
    <glyph glyph-name=".shdd.aa" unicode="&#xfc63;" arabic-form="isolated" 
d="M1 17q-7 -7 -15 -12t-18 -5h-32q-13 0 -29 4t-30.5 16.5t-24 36t-9.5 62.5v62h52v-73q0 -33 15 -44.5t38 -11.5h27v129h52v-129h27q23 0 38 11.5t15 44.5v73h51v-62q0 -39 -10 -62.5t-24.5 -36t-31 -16.5t-29.5 -4h-29q-11 0 -18.5 5t-14.5 12zM-26 420h52v-173h-52v173z
" />
    <glyph glyph-name="rial" unicode="&#xfdfc;" horiz-adv-x="1389" arabic-form="isolated" 
d="M1062 -155h18q46 0 78.5 14.5t53.5 38.5t31 54.5t10 63.5v273h82v-273q0 -56 -18.5 -103.5t-51 -82t-76 -53.5t-94.5 -19h-26zM978 88q36 0 56.5 19t20.5 54v128h82v-132q0 -76 -40.5 -116.5t-112.5 -40.5h-97q-13 0 -17.5 10.5t-4.5 31.5q0 24 4.5 35t17.5 11h91z
M941 -239h-88v84h88v-84zM805 -239h-89v84h89v-84zM851 0q-27 0 -52 7.5t-43.5 25.5t-29.5 47.5t-11 73.5v466h82v-448q0 -38 16.5 -61t52.5 -23h20q22 0 22 -43q0 -45 -22 -45h-35zM595 23q0 -55 -17.5 -103.5t-49.5 -84.5t-78 -56.5t-103 -20.5h-61q-112 0 -174 69
t-62 189v177h81v-174q0 -78 39 -126t128 -48h44q45 0 77.5 14t53.5 38t31 56t10 67v600h81v-597z" />
    <glyph glyph-name="alef.aa.fina" unicode="&#x622;" horiz-adv-x="238" arabic-form="final" 
d="M203 0q-27 0 -52 7.5t-43.5 25.5t-29.5 47.5t-11 73.5v323h82v-305q0 -38 16.5 -61t52.5 -23h20q22 0 22 -43q0 -45 -22 -45h-35zM56 583q-20 0 -31 -3.5t-19 -23.5l-21 -46l-53 25l28 62q9 19 17.5 31.5t19 19.5t24 9.5t32.5 2.5h192l-3 -77h-186z" />
    <glyph glyph-name="alef.thmz.fina" unicode="&#x623;" horiz-adv-x="238" arabic-form="final" 
d="M203 0q-27 0 -52 7.5t-43.5 25.5t-29.5 47.5t-11 73.5v303h82v-285q0 -38 16.5 -61t52.5 -23h20q22 0 22 -43q0 -45 -22 -45h-35zM209 598l-187 -94l-22 46l65 32q-28 10 -40.5 33t-12.5 47q0 42 27 68t69 26h47l-5 -52h-33q-25 0 -38.5 -13.5t-13.5 -33.5t14 -32.5
t32 -12.5q13 0 32.5 8.5t44.5 22.5z" />
    <glyph glyph-name="vav.thmz.fina" unicode="&#x624;" horiz-adv-x="483" arabic-form="final" 
d="M145 -155q41 0 72 12.5t51.5 33.5t31.5 49t13 60h-85q-51 0 -84 11t-52 32t-26.5 51.5t-7.5 68.5t11 72.5t32 60.5t52.5 41.5t73.5 15.5q33 0 63.5 -11t53.5 -34.5t36.5 -61.5t13.5 -92v-66h89q12 0 16.5 -10.5t4.5 -32.5q0 -23 -4.5 -34t-16.5 -11h-91q-2 -49 -19.5 -93
t-48.5 -77t-75 -52.5t-98 -19.5h-104l-6 87h104zM136 168q0 -43 20.5 -61.5t79.5 -18.5h79v62q0 63 -24.5 90.5t-68.5 27.5q-41 0 -63.5 -26.5t-22.5 -73.5zM318 506l-187 -94l-22 46l65 32q-28 10 -40.5 33t-12.5 47q0 42 27 68t69 26h47l-5 -52h-33q-25 0 -38.5 -13.5
t-13.5 -33.5t14 -32.5t32 -12.5q13 0 32.5 8.5t44.5 22.5z" />
    <glyph glyph-name="alef.bhmz.fina" unicode="&#x625;" horiz-adv-x="238" arabic-form="final" 
d="M203 0q-27 0 -52 7.5t-43.5 25.5t-29.5 47.5t-11 73.5v466h82v-448q0 -38 16.5 -61t52.5 -23h20q22 0 22 -43q0 -45 -22 -45h-35zM252 -261l-187 -94l-22 46l65 32q-28 10 -40.5 33t-12.5 47q0 42 27 68t69 26h47l-5 -52h-33q-25 0 -38.5 -13.5t-13.5 -33.5t14 -32.5
t32 -12.5q13 0 32.5 8.5t44.5 22.5z" />
    <glyph glyph-name="ye.thmz.fina" unicode="&#x626;" horiz-adv-x="695" arabic-form="final" 
d="M377 -155q47 0 79.5 8t52.5 22t28.5 32.5t8.5 38.5q0 22 -11.5 38t-40.5 16h-156l5 88h352q22 0 22 -43q0 -45 -22 -45h-93q13 -11 17.5 -27t4.5 -37q0 -27 -12 -58t-39.5 -57.5t-72.5 -44.5t-112 -18h-103q-112 0 -174 69t-62 189v177h81v-174q0 -78 39 -126t128 -48h80
zM441 271l-187 -94l-22 46l65 32q-28 10 -40.5 33t-12.5 47q0 42 27 68t69 26h47l-5 -52h-33q-25 0 -38.5 -13.5t-13.5 -33.5t14 -32.5t32 -12.5q13 0 32.5 8.5t44.5 22.5z" />
    <glyph glyph-name="ye.thmz.init" unicode="&#x626;" horiz-adv-x="305" arabic-form="initial" 
d="M91 88q36 0 56.5 19t20.5 54v128h82v-132q0 -76 -40.5 -116.5t-112.5 -40.5h-97q-13 0 -17.5 10.5t-4.5 31.5q0 24 4.5 35t17.5 11h91zM269 444l-187 -94l-22 46l65 32q-28 10 -40.5 33t-12.5 47q0 42 27 68t69 26h47l-5 -52h-33q-25 0 -38.5 -13.5t-13.5 -33.5t14 -32.5
t32 -12.5q13 0 32.5 8.5t44.5 22.5z" />
    <glyph glyph-name="ye.thmz.medi" unicode="&#x626;" horiz-adv-x="340" arabic-form="medial" 
d="M73 88q78 0 78 73v128h82v-128q0 -20 6.5 -34t17.5 -22.5t25.5 -12.5t29.5 -4h28q23 0 23 -43q0 -45 -23 -45h-31q-36 0 -67.5 13t-52.5 51q-23 -38 -52.5 -51t-63.5 -13h-73q-13 0 -17.5 10.5t-4.5 31.5q0 24 4.5 35t17.5 11h73zM272 444l-187 -94l-22 46l65 32
q-28 10 -40.5 33t-12.5 47q0 42 27 68t69 26h47l-5 -52h-33q-25 0 -38.5 -13.5t-13.5 -33.5t14 -32.5t32 -12.5q13 0 32.5 8.5t44.5 22.5z" />
    <glyph glyph-name="alef.fina" unicode="&#x627;" horiz-adv-x="238" arabic-form="final" 
d="M203 0q-27 0 -52 7.5t-43.5 25.5t-29.5 47.5t-11 73.5v466h82v-448q0 -38 16.5 -61t52.5 -23h20q22 0 22 -43q0 -45 -22 -45h-35z" />
    <glyph glyph-name="be.fina" unicode="&#x628;" horiz-adv-x="810" arabic-form="final" 
d="M553 88q77 0 77 73v128h82v-128q0 -20 6.5 -34t18 -22.5t26 -12.5t29.5 -4h18q13 0 17.5 -10.5t4.5 -32.5q0 -23 -4.5 -34t-17.5 -11h-21q-36 0 -67.5 13t-53.5 51q-23 -38 -52.5 -51t-62.5 -13h-347q-41 0 -70.5 12.5t-48 33.5t-27 49t-8.5 59v138h82v-118
q0 -39 19 -62.5t71 -23.5h329zM430 -200h-98v86h98v-86z" />
    <glyph glyph-name="be.init" unicode="&#x628;" horiz-adv-x="305" arabic-form="initial" 
d="M91 88q36 0 56.5 19t20.5 54v128h82v-132q0 -76 -40.5 -116.5t-112.5 -40.5h-97q-13 0 -17.5 10.5t-4.5 31.5q0 24 4.5 35t17.5 11h91zM137 -200h-98v86h98v-86z" />
    <glyph glyph-name="be.medi" unicode="&#x628;" horiz-adv-x="340" arabic-form="medial" 
d="M73 88q78 0 78 73v128h82v-128q0 -20 6.5 -34t17.5 -22.5t25.5 -12.5t29.5 -4h28q23 0 23 -43q0 -45 -23 -45h-31q-36 0 -67.5 13t-52.5 51q-23 -38 -52.5 -51t-63.5 -13h-73q-13 0 -17.5 10.5t-4.5 31.5q0 24 4.5 35t17.5 11h73zM216 -200h-98v86h98v-86z" />
    <glyph glyph-name="te.marbuta.fina" unicode="&#x629;" horiz-adv-x="485" arabic-form="final" 
d="M219 123q47 0 72.5 19t25.5 48v125h-90q-47 0 -70.5 -30t-23.5 -79q0 -46 21.5 -64.5t64.5 -18.5zM397 172q0 -38 15 -61t53 -23h20q13 0 17.5 -10.5t4.5 -32.5q0 -23 -4.5 -34t-17.5 -11h-20q-48 0 -80.5 18.5t-47.5 66.5q-12 -15 -28.5 -24t-34.5 -14t-37 -7t-35 -2
q-72 0 -110 40t-38 121q0 37 10.5 72.5t31.5 63.5t52.5 45t73.5 17h95v68h80v-293zM383 546h-91v84h91v-84zM249 546h-91v84h91v-84z" />
    <glyph glyph-name="te.fina" unicode="&#x62a;" horiz-adv-x="810" arabic-form="final" 
d="M553 88q77 0 77 73v128h82v-128q0 -20 6.5 -34t18 -22.5t26 -12.5t29.5 -4h18q13 0 17.5 -10.5t4.5 -32.5q0 -23 -4.5 -34t-17.5 -11h-21q-36 0 -67.5 13t-53.5 51q-23 -38 -52.5 -51t-62.5 -13h-347q-41 0 -70.5 12.5t-48 33.5t-27 49t-8.5 59v138h82v-118
q0 -39 19 -62.5t71 -23.5h329zM494 374h-91v84h91v-84zM360 374h-91v84h91v-84z" />
    <glyph glyph-name="te.init" unicode="&#x62a;" horiz-adv-x="305" arabic-form="initial" 
d="M91 88q36 0 56.5 19t20.5 54v128h82v-132q0 -76 -40.5 -116.5t-112.5 -40.5h-97q-13 0 -17.5 10.5t-4.5 31.5q0 24 4.5 35t17.5 11h91zM257 412h-91v84h91v-84zM123 412h-91v84h91v-84z" />
    <glyph glyph-name="te.medi" unicode="&#x62a;" horiz-adv-x="340" arabic-form="medial" 
d="M73 88q78 0 78 73v128h82v-128q0 -20 6.5 -34t17.5 -22.5t25.5 -12.5t29.5 -4h28q23 0 23 -43q0 -45 -23 -45h-31q-36 0 -67.5 13t-52.5 51q-23 -38 -52.5 -51t-63.5 -13h-73q-13 0 -17.5 10.5t-4.5 31.5q0 24 4.5 35t17.5 11h73zM292 412h-91v84h91v-84zM158 412h-91v84
h91v-84z" />
    <glyph glyph-name="the.fina" unicode="&#x62b;" horiz-adv-x="810" arabic-form="final" 
d="M553 88q77 0 77 73v128h82v-128q0 -20 6.5 -34t18 -22.5t26 -12.5t29.5 -4h18q13 0 17.5 -10.5t4.5 -32.5q0 -23 -4.5 -34t-17.5 -11h-21q-36 0 -67.5 13t-53.5 51q-23 -38 -52.5 -51t-62.5 -13h-347q-41 0 -70.5 12.5t-48 33.5t-27 49t-8.5 59v138h82v-118
q0 -39 19 -62.5t71 -23.5h329zM428 503h-92v83h92v-83zM494 374h-91v84h91v-84zM360 374h-91v84h91v-84z" />
    <glyph glyph-name="the.init" unicode="&#x62b;" horiz-adv-x="305" arabic-form="initial" 
d="M91 88q36 0 56.5 19t20.5 54v128h82v-132q0 -76 -40.5 -116.5t-112.5 -40.5h-97q-13 0 -17.5 10.5t-4.5 31.5q0 24 4.5 35t17.5 11h91zM191 541h-92v83h92v-83zM257 412h-91v84h91v-84zM123 412h-91v84h91v-84z" />
    <glyph glyph-name="the.medi" unicode="&#x62b;" horiz-adv-x="340" arabic-form="medial" 
d="M73 88q78 0 78 73v128h82v-128q0 -20 6.5 -34t17.5 -22.5t25.5 -12.5t29.5 -4h28q23 0 23 -43q0 -45 -23 -45h-31q-36 0 -67.5 13t-52.5 51q-23 -38 -52.5 -51t-63.5 -13h-73q-13 0 -17.5 10.5t-4.5 31.5q0 24 4.5 35t17.5 11h73zM226 541h-92v83h92v-83zM292 412h-91v84
h91v-84zM158 412h-91v84h91v-84z" />
    <glyph glyph-name="jim.fina" unicode="&#x62c;" horiz-adv-x="566" arabic-form="final" 
d="M397 222q-7 18 -14.5 31t-19 22t-28 13.5t-42.5 4.5h-208l6 88h214q27 0 54 -6t51.5 -26.5t45 -59t34.5 -104.5l-65 -38q17 -35 37.5 -47t52.5 -12h51q13 0 17.5 -10.5t4.5 -32.5q0 -23 -4.5 -34t-17.5 -11h-57q-33 0 -56 8.5t-39 23.5t-26.5 36t-19.5 46l-76 -44
q-48 -28 -80 -54t-51.5 -51.5t-27.5 -51t-8 -52.5q0 -75 42 -117t136 -42h184l-5 -87h-182q-69 0 -118 18.5t-79.5 51t-45 75.5t-14.5 92q0 43 10.5 80.5t35 72t64 67.5t96.5 66zM373 -169h-98v86h98v-86z" />
    <glyph glyph-name="jim.init" unicode="&#x62c;" horiz-adv-x="547" arabic-form="initial" 
d="M288 58q-26 -16 -51 -27t-53.5 -18t-62.5 -10t-78 -3h-43q-13 0 -17.5 10.5t-4.5 31.5q0 24 4.5 35t17.5 11h46q38 0 67.5 2t54.5 7t47 13.5t45 21.5l149 86q-8 18 -15.5 31.5t-19.5 23.5t-29 15t-43 5h-218l6 88h224q27 0 54.5 -7t52 -28t45.5 -60t35 -103zM294 -200
h-98v86h98v-86z" />
    <glyph glyph-name="jim.medi" unicode="&#x62c;" horiz-adv-x="585" arabic-form="medial" 
d="M436 144q16 -32 35.5 -44t51.5 -12h62q13 0 17.5 -10.5t4.5 -32.5q0 -23 -4.5 -34t-17.5 -11h-67q-33 0 -56 8.5t-39 23t-26.5 34.5t-18.5 44l-90 -52q-26 -16 -51 -27t-53.5 -18t-62.5 -10t-78 -3h-43q-13 0 -17.5 10.5t-4.5 31.5q0 24 4.5 35t17.5 11h46q38 0 67.5 2
t54.5 7t47 13.5t45 21.5l149 86q-8 18 -15.5 31.5t-19.5 23.5t-29 15t-43 5h-218l6 88h224q27 0 54.5 -7t52 -28t45.5 -60t35 -103zM294 -200h-98v86h98v-86z" />
    <glyph glyph-name="him.fina" unicode="&#x62d;" horiz-adv-x="566" arabic-form="final" 
d="M397 222q-7 18 -14.5 31t-19 22t-28 13.5t-42.5 4.5h-208l6 88h214q27 0 54 -6t51.5 -26.5t45 -59t34.5 -104.5l-65 -38q17 -35 37.5 -47t52.5 -12h51q13 0 17.5 -10.5t4.5 -32.5q0 -23 -4.5 -34t-17.5 -11h-57q-33 0 -56 8.5t-39 23.5t-26.5 36t-19.5 46l-76 -44
q-48 -28 -80 -54t-51.5 -51.5t-27.5 -51t-8 -52.5q0 -75 42 -117t136 -42h184l-5 -87h-182q-69 0 -118 18.5t-79.5 51t-45 75.5t-14.5 92q0 43 10.5 80.5t35 72t64 67.5t96.5 66z" />
    <glyph glyph-name="him.init" unicode="&#x62d;" horiz-adv-x="547" arabic-form="initial" 
d="M288 58q-26 -16 -51 -27t-53.5 -18t-62.5 -10t-78 -3h-43q-13 0 -17.5 10.5t-4.5 31.5q0 24 4.5 35t17.5 11h46q38 0 67.5 2t54.5 7t47 13.5t45 21.5l149 86q-8 18 -15.5 31.5t-19.5 23.5t-29 15t-43 5h-218l6 88h224q27 0 54.5 -7t52 -28t45.5 -60t35 -103z" />
    <glyph glyph-name="him.medi" unicode="&#x62d;" horiz-adv-x="585" arabic-form="medial" 
d="M436 144q16 -32 35.5 -44t51.5 -12h62q13 0 17.5 -10.5t4.5 -32.5q0 -23 -4.5 -34t-17.5 -11h-67q-33 0 -56 8.5t-39 23t-26.5 34.5t-18.5 44l-90 -52q-26 -16 -51 -27t-53.5 -18t-62.5 -10t-78 -3h-43q-13 0 -17.5 10.5t-4.5 31.5q0 24 4.5 35t17.5 11h46q38 0 67.5 2
t54.5 7t47 13.5t45 21.5l149 86q-8 18 -15.5 31.5t-19.5 23.5t-29 15t-43 5h-218l6 88h224q27 0 54.5 -7t52 -28t45.5 -60t35 -103z" />
    <glyph glyph-name="khe.fina" unicode="&#x62e;" horiz-adv-x="566" arabic-form="final" 
d="M397 222q-7 18 -14.5 31t-19 22t-28 13.5t-42.5 4.5h-208l6 88h214q27 0 54 -6t51.5 -26.5t45 -59t34.5 -104.5l-65 -38q17 -35 37.5 -47t52.5 -12h51q13 0 17.5 -10.5t4.5 -32.5q0 -23 -4.5 -34t-17.5 -11h-57q-33 0 -56 8.5t-39 23.5t-26.5 36t-19.5 46l-76 -44
q-48 -28 -80 -54t-51.5 -51.5t-27.5 -51t-8 -52.5q0 -75 42 -117t136 -42h184l-5 -87h-182q-69 0 -118 18.5t-79.5 51t-45 75.5t-14.5 92q0 43 10.5 80.5t35 72t64 67.5t96.5 66zM302 490h-98v86h98v-86z" />
    <glyph glyph-name="khe.init" unicode="&#x62e;" horiz-adv-x="547" arabic-form="initial" 
d="M288 58q-26 -16 -51 -27t-53.5 -18t-62.5 -10t-78 -3h-43q-13 0 -17.5 10.5t-4.5 31.5q0 24 4.5 35t17.5 11h46q38 0 67.5 2t54.5 7t47 13.5t45 21.5l149 86q-8 18 -15.5 31.5t-19.5 23.5t-29 15t-43 5h-218l6 88h224q27 0 54.5 -7t52 -28t45.5 -60t35 -103zM299 490h-98
v86h98v-86z" />
    <glyph glyph-name="khe.medi" unicode="&#x62e;" horiz-adv-x="585" arabic-form="medial" 
d="M436 144q16 -32 35.5 -44t51.5 -12h62q13 0 17.5 -10.5t4.5 -32.5q0 -23 -4.5 -34t-17.5 -11h-67q-33 0 -56 8.5t-39 23t-26.5 34.5t-18.5 44l-90 -52q-26 -16 -51 -27t-53.5 -18t-62.5 -10t-78 -3h-43q-13 0 -17.5 10.5t-4.5 31.5q0 24 4.5 35t17.5 11h46q38 0 67.5 2
t54.5 7t47 13.5t45 21.5l149 86q-8 18 -15.5 31.5t-19.5 23.5t-29 15t-43 5h-218l6 88h224q27 0 54.5 -7t52 -28t45.5 -60t35 -103zM299 490h-98v86h98v-86z" />
    <glyph glyph-name="dal.fina" unicode="&#x62f;" horiz-adv-x="511" arabic-form="final" 
d="M249 88q40 0 56 17t16 33q0 9 -3.5 24t-13.5 46t-29 83.5t-49 136.5l78 32l105 -297q14 -41 33 -58t56 -17h13q22 0 22 -43q0 -45 -22 -45h-13q-33 0 -63.5 12t-55.5 53q-21 -38 -52.5 -51.5t-68.5 -13.5h-215l-5 88h211z" />
    <glyph glyph-name="zal.fina" unicode="&#x630;" horiz-adv-x="511" arabic-form="final" 
d="M249 88q40 0 56 17t16 33q0 9 -3.5 24t-13.5 46t-29 83.5t-49 136.5l78 32l105 -297q14 -41 33 -58t56 -17h13q22 0 22 -43q0 -45 -22 -45h-13q-33 0 -63.5 12t-55.5 53q-21 -38 -52.5 -51.5t-68.5 -13.5h-215l-5 88h211zM321 559h-98v86h98v-86z" />
    <glyph glyph-name="re.fina" unicode="&#x631;" horiz-adv-x="267" arabic-form="final" 
d="M175 16q0 -56 -18 -103.5t-49.5 -82t-75 -53.5t-94.5 -19h-61l-5 87h46q48 0 81.5 14.5t55 38.5t31.5 54.5t10 63.5v273h82v-131q0 -33 21.5 -51.5t56.5 -18.5h11q22 0 22 -43q0 -45 -22 -45h-11q-22 0 -44 8t-37 29v-21z" />
    <glyph glyph-name="ze.fina" unicode="&#x632;" horiz-adv-x="267" arabic-form="final" 
d="M175 16q0 -56 -18 -103.5t-49.5 -82t-75 -53.5t-94.5 -19h-61l-5 87h46q48 0 81.5 14.5t55 38.5t31.5 54.5t10 63.5v273h82v-131q0 -33 21.5 -51.5t56.5 -18.5h11q22 0 22 -43q0 -45 -22 -45h-11q-22 0 -44 8t-37 29v-21zM181 412h-98v86h98v-86z" />
    <glyph glyph-name="sin.fina" unicode="&#x633;" horiz-adv-x="1168" arabic-form="final" 
d="M594 158q0 -33 22.5 -51.5t58.5 -18.5q86 0 86 73v128h81v-128q0 -41 22 -57t50 -16q74 0 74 73v128h82v-128q0 -20 6.5 -34t17.5 -22.5t25 -12.5t28 -4h21q22 0 22 -43q0 -45 -22 -45h-21q-37 0 -68.5 13t-52.5 51q-23 -38 -53 -51t-59 -13q-35 0 -64.5 13t-50.5 51
q-23 -38 -55.5 -51t-65.5 -13q-31 0 -52 9.5t-35 25.5v-19q0 -51 -17 -98t-48.5 -82.5t-77 -56.5t-102.5 -21h-61q-112 0 -174 69t-62 189v177h81v-174q0 -78 39 -126t128 -48h44q45 0 77.5 14t53.5 38t31 56t10 67v269h81v-131z" />
    <glyph glyph-name="sin.init" unicode="&#x633;" horiz-adv-x="731" arabic-form="initial" 
d="M40 88q79 0 79 73v128h82v-128q0 -20 7 -34t18 -22.5t25.5 -12.5t29.5 -4q86 0 86 73v128h82v-128q0 -41 21.5 -57t50.5 -16q34 0 54 19t20 54v128h82v-132q0 -76 -41 -116.5t-112 -40.5q-35 0 -66.5 13t-52.5 51q-23 -38 -56 -51t-68 -13q-38 0 -70.5 13t-53.5 51
q-23 -38 -54 -51t-66 -13h-37q-13 0 -17.5 10.5t-4.5 31.5q0 24 4.5 35t17.5 11h40z" />
    <glyph glyph-name="sin.medi" unicode="&#x633;" horiz-adv-x="775" arabic-form="medial" 
d="M40 88q79 0 79 73v128h82v-128q0 -20 7 -34t18 -22.5t25.5 -12.5t29.5 -4q86 0 86 73v128h82v-128q0 -41 21.5 -57t50.5 -16q35 0 54.5 19t19.5 54v128h82v-128q0 -20 6.5 -34t17.5 -22.5t25 -12.5t28 -4h21q22 0 22 -43q0 -45 -22 -45h-21q-37 0 -68.5 13t-52.5 51
q-23 -38 -53.5 -51t-58.5 -13q-35 0 -65 13t-51 51q-23 -38 -56 -51t-68 -13q-38 0 -70.5 13t-53.5 51q-23 -38 -54 -51t-66 -13h-37q-13 0 -17.5 10.5t-4.5 31.5q0 24 4.5 35t17.5 11h40z" />
    <glyph glyph-name="shin.fina" unicode="&#x634;" horiz-adv-x="1168" arabic-form="final" 
d="M594 158q0 -33 22.5 -51.5t58.5 -18.5q86 0 86 73v128h81v-128q0 -41 22 -57t50 -16q74 0 74 73v128h82v-128q0 -20 6.5 -34t17.5 -22.5t25 -12.5t28 -4h21q22 0 22 -43q0 -45 -22 -45h-21q-37 0 -68.5 13t-52.5 51q-23 -38 -53 -51t-59 -13q-35 0 -64.5 13t-50.5 51
q-23 -38 -55.5 -51t-65.5 -13q-31 0 -52 9.5t-35 25.5v-19q0 -51 -17 -98t-48.5 -82.5t-77 -56.5t-102.5 -21h-61q-112 0 -174 69t-62 189v177h81v-174q0 -78 39 -126t128 -48h44q45 0 77.5 14t53.5 38t31 56t10 67v269h81v-131zM847 541h-92v83h92v-83zM913 412h-91v84h91
v-84zM779 412h-91v84h91v-84z" />
    <glyph glyph-name="shin.init" unicode="&#x634;" horiz-adv-x="731" arabic-form="initial" 
d="M40 88q79 0 79 73v128h82v-128q0 -20 7 -34t18 -22.5t25.5 -12.5t29.5 -4q86 0 86 73v128h82v-128q0 -41 21.5 -57t50.5 -16q34 0 54 19t20 54v128h82v-132q0 -76 -41 -116.5t-112 -40.5q-35 0 -66.5 13t-52.5 51q-23 -38 -56 -51t-68 -13q-38 0 -70.5 13t-53.5 51
q-23 -38 -54 -51t-66 -13h-37q-13 0 -17.5 10.5t-4.5 31.5q0 24 4.5 35t17.5 11h40zM454 541h-92v83h92v-83zM520 412h-91v84h91v-84zM386 412h-91v84h91v-84z" />
    <glyph glyph-name="shin.medi" unicode="&#x634;" horiz-adv-x="775" arabic-form="medial" 
d="M40 88q79 0 79 73v128h82v-128q0 -20 7 -34t18 -22.5t25.5 -12.5t29.5 -4q86 0 86 73v128h82v-128q0 -41 21.5 -57t50.5 -16q35 0 54.5 19t19.5 54v128h82v-128q0 -20 6.5 -34t17.5 -22.5t25 -12.5t28 -4h21q22 0 22 -43q0 -45 -22 -45h-21q-37 0 -68.5 13t-52.5 51
q-23 -38 -53.5 -51t-58.5 -13q-35 0 -65 13t-51 51q-23 -38 -56 -51t-68 -13q-38 0 -70.5 13t-53.5 51q-23 -38 -54 -51t-66 -13h-37q-13 0 -17.5 10.5t-4.5 31.5q0 24 4.5 35t17.5 11h40zM454 541h-92v83h92v-83zM520 412h-91v84h91v-84zM386 412h-91v84h91v-84z" />
    <glyph glyph-name="sad.fina" unicode="&#x635;" horiz-adv-x="1212" arabic-form="final" 
d="M660 90q43 77 81 131.5t74 89t70.5 50.5t69.5 16q39 0 70.5 -15t54 -41t35 -61t12.5 -75q0 -20 -4 -38.5t-13 -35.5q18 -16 40 -19.5t48 -3.5h14q22 0 22 -43q0 -45 -22 -45h-14q-29 0 -61.5 5.5t-64.5 38.5q-22 -20 -52.5 -32t-70.5 -12h-260q-32 0 -57.5 9.5
t-40.5 29.5v-23q0 -51 -17 -98t-48.5 -82.5t-77 -56.5t-102.5 -21h-61q-112 0 -174 69t-62 189v177h81v-174q0 -78 39 -126t128 -48h44q45 0 77.5 14t53.5 38t31 56t10 67v269h81v-116q0 -33 15.5 -56t50.5 -27zM1046 185q0 21 -7 40t-20 33t-30.5 22.5t-39.5 8.5
q-46 0 -95.5 -47.5t-111.5 -153.5h210q38 0 66 23.5t28 73.5z" />
    <glyph glyph-name="sad.init" unicode="&#x635;" horiz-adv-x="778" arabic-form="initial" 
d="M261 90q43 77 81 131.5t74 89t70 50.5t69 16q39 0 71.5 -15t55 -41t35 -61t12.5 -75q0 -34 -10.5 -67t-33 -59.5t-56.5 -42.5t-80 -16h-274q-38 0 -70.5 13t-53.5 51q-23 -38 -54 -51t-66 -13h-31q-13 0 -17.5 10.5t-4.5 31.5q0 24 4.5 35t17.5 11h33q80 0 80 73v128h82
v-128q0 -32 18.5 -49.5t47.5 -21.5zM646 185q0 21 -7 40t-19.5 33t-30.5 22.5t-40 8.5q-45 0 -94.5 -47t-112.5 -154h210q38 0 66 23.5t28 73.5z" />
    <glyph glyph-name="sad.medi" unicode="&#x635;" horiz-adv-x="813" arabic-form="medial" 
d="M261 90q43 77 81 131.5t74 89t70 50.5t69 16q39 0 71.5 -15t55 -41t35 -61t12.5 -75q0 -39 -19 -74q19 -16 41 -19.5t48 -3.5h14q22 0 22 -43q0 -45 -22 -45h-14q-15 0 -30.5 0.5t-31.5 5t-32 13t-32 25.5q-23 -20 -53.5 -32t-70.5 -12h-274q-38 0 -70.5 13t-53.5 51
q-23 -38 -54 -51t-66 -13h-31q-13 0 -17.5 10.5t-4.5 31.5q0 24 4.5 35t17.5 11h33q80 0 80 73v128h82v-128q0 -32 18.5 -49.5t47.5 -21.5zM646 185q0 21 -7 40t-19.5 33t-30.5 22.5t-40 8.5q-45 0 -94.5 -47t-112.5 -154h210q38 0 66 23.5t28 73.5z" />
    <glyph glyph-name="zad.fina" unicode="&#x636;" horiz-adv-x="1212" arabic-form="final" 
d="M660 90q43 77 81 131.5t74 89t70.5 50.5t69.5 16q39 0 70.5 -15t54 -41t35 -61t12.5 -75q0 -20 -4 -38.5t-13 -35.5q18 -16 40 -19.5t48 -3.5h14q22 0 22 -43q0 -45 -22 -45h-14q-29 0 -61.5 5.5t-64.5 38.5q-22 -20 -52.5 -32t-70.5 -12h-260q-32 0 -57.5 9.5
t-40.5 29.5v-23q0 -51 -17 -98t-48.5 -82.5t-77 -56.5t-102.5 -21h-61q-112 0 -174 69t-62 189v177h81v-174q0 -78 39 -126t128 -48h44q45 0 77.5 14t53.5 38t31 56t10 67v269h81v-116q0 -33 15.5 -56t50.5 -27zM1046 185q0 21 -7 40t-20 33t-30.5 22.5t-39.5 8.5
q-46 0 -95.5 -47.5t-111.5 -153.5h210q38 0 66 23.5t28 73.5zM962 482h-98v86h98v-86z" />
    <glyph glyph-name="zad.init" unicode="&#x636;" horiz-adv-x="778" arabic-form="initial" 
d="M261 90q43 77 81 131.5t74 89t70 50.5t69 16q39 0 71.5 -15t55 -41t35 -61t12.5 -75q0 -34 -10.5 -67t-33 -59.5t-56.5 -42.5t-80 -16h-274q-38 0 -70.5 13t-53.5 51q-23 -38 -54 -51t-66 -13h-31q-13 0 -17.5 10.5t-4.5 31.5q0 24 4.5 35t17.5 11h33q80 0 80 73v128h82
v-128q0 -32 18.5 -49.5t47.5 -21.5zM646 185q0 21 -7 40t-19.5 33t-30.5 22.5t-40 8.5q-45 0 -94.5 -47t-112.5 -154h210q38 0 66 23.5t28 73.5zM563 482h-98v86h98v-86z" />
    <glyph glyph-name="zad.medi" unicode="&#x636;" horiz-adv-x="813" arabic-form="medial" 
d="M261 90q43 77 81 131.5t74 89t70 50.5t69 16q39 0 71.5 -15t55 -41t35 -61t12.5 -75q0 -39 -19 -74q19 -16 41 -19.5t48 -3.5h14q22 0 22 -43q0 -45 -22 -45h-14q-15 0 -30.5 0.5t-31.5 5t-32 13t-32 25.5q-23 -20 -53.5 -32t-70.5 -12h-274q-38 0 -70.5 13t-53.5 51
q-23 -38 -54 -51t-66 -13h-31q-13 0 -17.5 10.5t-4.5 31.5q0 24 4.5 35t17.5 11h33q80 0 80 73v128h82v-128q0 -32 18.5 -49.5t47.5 -21.5zM646 185q0 21 -7 40t-19.5 33t-30.5 22.5t-40 8.5q-45 0 -94.5 -47t-112.5 -154h210q38 0 66 23.5t28 73.5zM563 482h-98v86h98v-86z
" />
    <glyph glyph-name="ta.fina" unicode="&#x637;" horiz-adv-x="694" arabic-form="final" 
d="M136 620h82v-292v-64t-2 -63q60 94 113.5 135t107.5 41q39 0 70.5 -15t54 -41t35 -61t12.5 -75t-17 -74q18 -16 40 -19.5t48 -3.5h14q22 0 22 -43q0 -45 -22 -45h-14q-29 0 -61.5 5.5t-64.5 38.5q-22 -20 -52.5 -32t-70.5 -12h-382l-6 88h93v532zM527 185q0 21 -7 40
t-19.5 33t-30 22.5t-39.5 8.5q-23 0 -46 -11t-48.5 -35t-54.5 -62.5t-65 -92.5h217q38 0 65.5 23.5t27.5 73.5z" />
    <glyph glyph-name="ta.init" unicode="&#x637;" horiz-adv-x="614" arabic-form="initial" 
d="M92 620h82v-292q0 -31 -0.5 -64.5t-2.5 -62.5q53 81 100.5 122t95.5 50q15 2 29.5 1.5t28.5 -2.5q64 -11 102 -63t38 -124q0 -34 -10.5 -67t-32.5 -59.5t-56 -42.5t-80 -16h-386q-13 0 -17.5 10.5t-4.5 31.5q0 24 4.5 35t17.5 11h92v532zM483 185q0 21 -7 40t-20 33
t-30.5 22.5t-39.5 8.5q-23 0 -45.5 -11t-48 -35t-54.5 -62.5t-65 -92.5h216q38 0 66 23.5t28 73.5z" />
    <glyph glyph-name="ta.medi" unicode="&#x637;" horiz-adv-x="649" arabic-form="medial" 
d="M92 620h82v-292q0 -33 -0.5 -64t-2.5 -63q55 85 104 126t99 48q24 3 46 -2q33 -5 60 -21t45.5 -41t29 -57.5t10.5 -68.5q0 -41 -18 -74q19 -16 40.5 -19.5t47.5 -3.5h14q22 0 22 -43q0 -45 -22 -45h-14q-29 0 -61 5.5t-64 38.5q-23 -20 -53.5 -32t-70.5 -12h-386
q-13 0 -17.5 10.5t-4.5 31.5q0 24 4.5 35t17.5 11h92v532zM483 185q0 21 -7 40t-20 33t-30.5 22.5t-39.5 8.5q-23 0 -45.5 -11t-48 -35t-54.5 -62.5t-65 -92.5h216q38 0 66 23.5t28 73.5z" />
    <glyph glyph-name="za.fina" unicode="&#x638;" horiz-adv-x="694" arabic-form="final" 
d="M136 620h82v-292v-64t-2 -63q60 94 113.5 135t107.5 41q39 0 70.5 -15t54 -41t35 -61t12.5 -75t-17 -74q18 -16 40 -19.5t48 -3.5h14q22 0 22 -43q0 -45 -22 -45h-14q-29 0 -61.5 5.5t-64.5 38.5q-22 -20 -52.5 -32t-70.5 -12h-382l-6 88h93v532zM527 185q0 21 -7 40
t-19.5 33t-30 22.5t-39.5 8.5q-23 0 -46 -11t-48.5 -35t-54.5 -62.5t-65 -92.5h217q38 0 65.5 23.5t27.5 73.5zM492 494h-98v86h98v-86z" />
    <glyph glyph-name="za.init" unicode="&#x638;" horiz-adv-x="614" arabic-form="initial" 
d="M92 620h82v-292q0 -31 -0.5 -64.5t-2.5 -62.5q53 81 100.5 122t95.5 50q15 2 29.5 1.5t28.5 -2.5q64 -11 102 -63t38 -124q0 -34 -10.5 -67t-32.5 -59.5t-56 -42.5t-80 -16h-386q-13 0 -17.5 10.5t-4.5 31.5q0 24 4.5 35t17.5 11h92v532zM483 185q0 21 -7 40t-20 33
t-30.5 22.5t-39.5 8.5q-23 0 -45.5 -11t-48 -35t-54.5 -62.5t-65 -92.5h216q38 0 66 23.5t28 73.5zM445 494h-98v86h98v-86z" />
    <glyph glyph-name="za.medi" unicode="&#x638;" horiz-adv-x="649" arabic-form="medial" 
d="M92 620h82v-292q0 -33 -0.5 -64t-2.5 -63q55 85 104 126t99 48q24 3 46 -2q33 -5 60 -21t45.5 -41t29 -57.5t10.5 -68.5q0 -41 -18 -74q19 -16 40.5 -19.5t47.5 -3.5h14q22 0 22 -43q0 -45 -22 -45h-14q-29 0 -61 5.5t-64 38.5q-23 -20 -53.5 -32t-70.5 -12h-386
q-13 0 -17.5 10.5t-4.5 31.5q0 24 4.5 35t17.5 11h92v532zM483 185q0 21 -7 40t-20 33t-30.5 22.5t-39.5 8.5q-23 0 -45.5 -11t-48 -35t-54.5 -62.5t-65 -92.5h216q38 0 66 23.5t28 73.5zM445 494h-98v86h98v-86z" />
    <glyph glyph-name="ein.fina" unicode="&#x639;" horiz-adv-x="549" arabic-form="final" 
d="M266 55q-40 -28 -66 -53t-41.5 -50t-22 -49.5t-6.5 -51.5q0 -68 40.5 -108.5t135.5 -40.5h176l-6 -87h-172q-70 0 -118.5 18t-79 49.5t-44 73t-13.5 89.5q0 35 7.5 67.5t25.5 64t47 63t71 63.5l-148 190l43 82h259q54 0 85.5 -26t31.5 -70q0 -14 -3.5 -29t-15.5 -35
t-36 -46t-66 -62q28 -14 57.5 -16.5t71.5 -2.5h70q13 0 17.5 -10.5t4.5 -32.5q0 -23 -4.5 -34t-17.5 -11h-85q-32 0 -59 1.5t-51 6.5t-45.5 16t-42.5 31zM383 257q0 35 -53 35h-181l125 -160q32 26 53 45.5t33.5 34t17.5 25.5t5 20z" />
    <glyph glyph-name="ein.init" unicode="&#x639;" horiz-adv-x="472" arabic-form="initial" 
d="M122 88q-23 26 -30.5 55t-7.5 50q0 38 13 71t36 57t56 38t72 14q35 0 67.5 -11t70.5 -36l-35 -70q-31 16 -55 22.5t-48 6.5q-22 0 -39.5 -8t-30 -20.5t-19 -29.5t-6.5 -35q0 -21 7.5 -39.5t20.5 -33t30 -23t36 -8.5h163l-5 -88h-418q-13 0 -17.5 10.5t-4.5 31.5
q0 24 4.5 35t17.5 11h122z" />
    <glyph glyph-name="ein.medi" unicode="&#x639;" horiz-adv-x="576" arabic-form="medial" 
d="M51 88q38 0 81.5 4t84.5 21l-138 180l43 82h259q46 0 76.5 -19.5t36.5 -56.5q3 -14 3 -27q-1 -13 -6 -28t-17.5 -34.5t-36 -44.5t-60.5 -58q27 -14 56.5 -16.5t71.5 -2.5h71q22 0 22 -43q0 -45 -22 -45h-86q-32 0 -59 1.5t-51 6.5t-45.5 16t-42.5 31q-27 -17 -54.5 -28
t-56 -17t-59.5 -8t-65 -2h-57q-13 0 -17.5 10.5t-4.5 31.5q0 24 4.5 35t17.5 11h51zM410 257q0 35 -53 35h-182l125 -160q32 26 53 45.5t34 34t18 25.5t5 20z" />
    <glyph glyph-name="qein.fina" unicode="&#x63a;" horiz-adv-x="549" arabic-form="final" 
d="M266 55q-40 -28 -66 -53t-41.5 -50t-22 -49.5t-6.5 -51.5q0 -68 40.5 -108.5t135.5 -40.5h176l-6 -87h-172q-70 0 -118.5 18t-79 49.5t-44 73t-13.5 89.5q0 35 7.5 67.5t25.5 64t47 63t71 63.5l-148 190l43 82h259q54 0 85.5 -26t31.5 -70q0 -14 -3.5 -29t-15.5 -35
t-36 -46t-66 -62q28 -14 57.5 -16.5t71.5 -2.5h70q13 0 17.5 -10.5t4.5 -32.5q0 -23 -4.5 -34t-17.5 -11h-85q-32 0 -59 1.5t-51 6.5t-45.5 16t-42.5 31zM383 257q0 35 -53 35h-181l125 -160q32 26 53 45.5t33.5 34t17.5 25.5t5 20zM323 503h-98v86h98v-86z" />
    <glyph glyph-name="qein.init" unicode="&#x63a;" horiz-adv-x="472" arabic-form="initial" 
d="M122 88q-23 26 -30.5 55t-7.5 50q0 38 13 71t36 57t56 38t72 14q35 0 67.5 -11t70.5 -36l-35 -70q-31 16 -55 22.5t-48 6.5q-22 0 -39.5 -8t-30 -20.5t-19 -29.5t-6.5 -35q0 -21 7.5 -39.5t20.5 -33t30 -23t36 -8.5h163l-5 -88h-418q-13 0 -17.5 10.5t-4.5 31.5
q0 24 4.5 35t17.5 11h122zM286 489h-98v86h98v-86z" />
    <glyph glyph-name="qein.medi" unicode="&#x63a;" horiz-adv-x="576" arabic-form="medial" 
d="M51 88q38 0 81.5 4t84.5 21l-138 180l43 82h259q46 0 76.5 -19.5t36.5 -56.5q3 -14 3 -27q-1 -13 -6 -28t-17.5 -34.5t-36 -44.5t-60.5 -58q27 -14 56.5 -16.5t71.5 -2.5h71q22 0 22 -43q0 -45 -22 -45h-86q-32 0 -59 1.5t-51 6.5t-45.5 16t-42.5 31q-27 -17 -54.5 -28
t-56 -17t-59.5 -8t-65 -2h-57q-13 0 -17.5 10.5t-4.5 31.5q0 24 4.5 35t17.5 11h51zM410 257q0 35 -53 35h-182l125 -160q32 26 53 45.5t34 34t18 25.5t5 20zM349 503h-98v86h98v-86z" />
    <glyph glyph-name="fe.fina" unicode="&#x641;" horiz-adv-x="881" arabic-form="final" 
d="M625 316q-42 0 -67.5 -27.5t-25.5 -67.5q0 -21 8.5 -39.5t23 -33.5t32 -26.5t35.5 -19.5q15 8 30.5 19.5t28 26.5t20.5 32.5t8 38.5q0 43 -25.5 70t-67.5 27zM631 404q42 0 73 -14.5t51.5 -38t31 -53t10.5 -59.5q0 -91 -78 -151h162q13 0 17.5 -10.5t4.5 -32.5
q0 -23 -4.5 -34t-17.5 -11h-106q-46 0 -82 3t-56 14q-15 -6 -35 -9.5t-42 -5t-42 -2t-35 -0.5h-275q-41 0 -70.5 12.5t-48 33.5t-27 49t-8.5 59v138h82v-118q0 -39 19 -62.5t72 -23.5h312q-42 30 -64 65.5t-22 79.5q0 33 12.5 64t35.5 54.5t56 38t74 14.5zM675 492h-98v86
h98v-86z" />
    <glyph glyph-name="fe.init" unicode="&#x641;" horiz-adv-x="475" arabic-form="initial" 
d="M132 88q29 0 47 -0.5t41 -3.5q-47 17 -74 34.5t-40.5 37t-17.5 42.5t-4 52q0 27 10.5 56t31.5 52.5t52.5 38.5t72.5 15q39 0 70.5 -10t54 -33.5t35 -61t12.5 -91.5v-48q0 -78 -46.5 -123t-146.5 -45h-230q-13 0 -17.5 10.5t-4.5 31.5q0 24 4.5 35t17.5 11h132zM247 323
q-21 0 -37 -7.5t-27.5 -19.5t-17 -27.5t-5.5 -31.5q0 -17 3.5 -31.5t19 -29.5t47.5 -31.5t88 -37.5q12 11 18.5 30t6.5 41v30q0 53 -21.5 84t-74.5 31zM300 503h-98v86h98v-86z" />
    <glyph glyph-name="fe.medi" unicode="&#x641;" horiz-adv-x="512" arabic-form="medial" 
d="M169 88q-42 30 -63.5 65.5t-21.5 79.5q0 33 12.5 64t35.5 54.5t56.5 38t74.5 14.5t72 -14.5t51.5 -38t31 -53t10.5 -59.5q0 -91 -78 -151h162q22 0 22 -43q0 -45 -22 -45h-106q-46 0 -82 3t-56 14q-14 -6 -34.5 -9.5t-42 -5t-42 -2t-34.5 -0.5h-115q-13 0 -17.5 10.5
t-4.5 31.5q0 24 4.5 35t17.5 11h169zM256 316q-42 0 -67.5 -27.5t-25.5 -67.5q0 -21 8.5 -39.5t23 -33.5t32 -26.5t35.5 -19.5q15 8 30.5 19.5t28 26.5t20.5 32.5t8 38.5q0 43 -25.5 70t-67.5 27zM311 492h-98v86h98v-86z" />
    <glyph glyph-name="qaf.fina" unicode="&#x642;" horiz-adv-x="741" arabic-form="final" 
d="M650 0q-2 -49 -20 -93t-49.5 -77t-75.5 -52.5t-98 -19.5h-122q-112 0 -174 69t-62 189v177h81v-174q0 -78 39 -126t128 -48h104q41 0 72 12.5t52 33.5t32.5 49t13.5 60h-85q-51 0 -84.5 11t-52.5 32t-26.5 51.5t-7.5 68.5t11 72.5t32.5 60.5t53 41.5t73.5 15.5
q33 0 63.5 -11t53 -34.5t36 -61.5t13.5 -92v-66h90q22 0 22 -43q0 -45 -22 -45h-91zM394 168q0 -43 20.5 -61.5t79.5 -18.5h79v62q0 63 -24 90.5t-69 27.5q-41 0 -63.5 -26.5t-22.5 -73.5zM598 459h-91v84h91v-84zM464 459h-91v84h91v-84z" />
    <glyph glyph-name="qaf.init" unicode="&#x642;" horiz-adv-x="475" arabic-form="initial" 
d="M132 88q29 0 47 -0.5t41 -3.5q-47 17 -74 34.5t-40.5 37t-17.5 42.5t-4 52q0 27 10.5 56t31.5 52.5t52.5 38.5t72.5 15q39 0 70.5 -10t54 -33.5t35 -61t12.5 -91.5v-48q0 -78 -46.5 -123t-146.5 -45h-230q-13 0 -17.5 10.5t-4.5 31.5q0 24 4.5 35t17.5 11h132zM247 323
q-21 0 -37 -7.5t-27.5 -19.5t-17 -27.5t-5.5 -31.5q0 -17 3.5 -31.5t19 -29.5t47.5 -31.5t88 -37.5q12 11 18.5 30t6.5 41v30q0 53 -21.5 84t-74.5 31zM360 506h-91v84h91v-84zM226 506h-91v84h91v-84z" />
    <glyph glyph-name="qaf.medi" unicode="&#x642;" horiz-adv-x="512" arabic-form="medial" 
d="M169 88q-42 30 -63.5 65.5t-21.5 79.5q0 33 12.5 64t35.5 54.5t56.5 38t74.5 14.5t72 -14.5t51.5 -38t31 -53t10.5 -59.5q0 -91 -78 -151h162q22 0 22 -43q0 -45 -22 -45h-106q-46 0 -82 3t-56 14q-14 -6 -34.5 -9.5t-42 -5t-42 -2t-34.5 -0.5h-115q-13 0 -17.5 10.5
t-4.5 31.5q0 24 4.5 35t17.5 11h169zM256 316q-42 0 -67.5 -27.5t-25.5 -67.5q0 -21 8.5 -39.5t23 -33.5t32 -26.5t35.5 -19.5q15 8 30.5 19.5t28 26.5t20.5 32.5t8 38.5q0 43 -25.5 70t-67.5 27zM369 493h-91v84h91v-84zM235 493h-91v84h91v-84z" />
    <glyph glyph-name="kaf.arab.fina" unicode="&#x643;" horiz-adv-x="793" arabic-form="final" 
d="M408 209v81q0 11 -5 16.5t-19 5.5h-127v123q0 52 28 81t82 29h54l6 -63h-56q-54 0 -54 -53v-53h96q32 0 44 -20t12 -43v-104h-61zM208 0q-41 0 -70.5 12.5t-48 33.5t-27 49t-8.5 59v138h82v-118q0 -39 19 -62.5t72 -23.5h312q77 0 77 73v459h81v-459q0 -20 7 -34
t18 -22.5t26 -12.5t30 -4h15q13 0 17.5 -10.5t4.5 -32.5q0 -23 -4.5 -34t-17.5 -11h-18q-37 0 -68.5 13t-52.5 51q-23 -38 -52.5 -51t-62.5 -13h-331z" />
    <glyph glyph-name="lam.fina" unicode="&#x644;" horiz-adv-x="683" arabic-form="final" 
d="M672 0q-22 0 -44 8t-37 29v-18q0 -54 -17 -101.5t-49 -83t-77 -56t-102 -20.5h-61q-112 0 -174 69t-62 189v177h81v-174q0 -78 39 -126t128 -48h44q45 0 77.5 14t53.5 38t31 56t10 67v600h81v-462q0 -33 22 -51.5t56 -18.5h11q23 0 23 -43q0 -45 -23 -45h-11z" />
    <glyph glyph-name="lam.init" unicode="&#x644;" horiz-adv-x="250" arabic-form="initial" 
d="M25 88q36 0 56.5 19t20.5 54v459h82v-463q0 -76 -40.5 -116.5t-112.5 -40.5h-31q-13 0 -17.5 10.5t-4.5 31.5q0 24 4.5 35t17.5 11h25z" />
    <glyph glyph-name="lam.medi" unicode="&#x644;" horiz-adv-x="278" arabic-form="medial" 
d="M25 88q77 0 77 73v459h82v-459q0 -20 6.5 -34t17.5 -22.5t25.5 -12.5t29.5 -4h15q13 0 17.5 -10.5t4.5 -32.5q0 -23 -4.5 -34t-17.5 -11h-18q-36 0 -67.5 13t-52.5 51q-23 -38 -53 -51t-62 -13h-25q-13 0 -17.5 10.5t-4.5 31.5q0 24 4.5 35t17.5 11h25z" />
    <glyph glyph-name="mim.fina" unicode="&#x645;" horiz-adv-x="663" arabic-form="final" 
d="M575 174q0 -47 21 -66.5t51 -19.5h16q13 0 17.5 -10.5t4.5 -32.5q0 -23 -4.5 -34t-17.5 -11h-16q-15 0 -30 2t-29.5 8.5t-27.5 19t-23 32.5q-12 -19 -28.5 -31t-34 -19t-36 -9.5t-34.5 -2.5q-69 0 -111.5 36.5t-42.5 106.5v57q0 30 6.5 51t24.5 37h-33q-57 0 -84.5 -26.5
t-27.5 -70.5v-433h-82v436q0 35 12.5 67.5t36.5 57t60 39.5t84 15h181q41 0 69 -11.5t45.5 -31t25 -44.5t7.5 -52v-60zM411 88q41 0 63 17.5t22 52.5v56q0 29 -16.5 50t-53.5 21h-28q-37 0 -53.5 -21t-16.5 -53v-50q0 -35 20.5 -54t62.5 -19z" />
    <glyph glyph-name="mim.init" unicode="&#x645;" horiz-adv-x="477" arabic-form="initial" 
d="M13 88q76 0 76 64v31q0 85 44.5 134.5t123.5 49.5q41 0 72 -13.5t52 -37.5t31.5 -57.5t10.5 -73.5q0 -88 -45 -136.5t-124 -48.5q-40 0 -76.5 15.5t-56.5 52.5q-9 -21 -22 -34.5t-27 -21t-29.5 -10t-29.5 -2.5h-13q-13 0 -17.5 10.5t-4.5 31.5q0 24 4.5 35t17.5 11h13z
M343 179q0 44 -19.5 72t-68.5 28q-45 0 -66.5 -27t-21.5 -76q0 -44 24.5 -66t62.5 -22q45 0 67 23.5t22 67.5z" />
    <glyph glyph-name="mim.medi" unicode="&#x645;" horiz-adv-x="511" arabic-form="medial" 
d="M13 88q76 0 76 64v31q0 85 44.5 134.5t123.5 49.5q41 0 72 -13.5t52 -37t31.5 -56.5t10.5 -72v-26q0 -42 21.5 -58t50.5 -16h16q13 0 17.5 -10.5t4.5 -32.5q0 -23 -4.5 -34t-17.5 -11h-16q-15 0 -30.5 3t-29.5 10.5t-27 21t-23 35.5q-27 -43 -62 -56.5t-72 -13.5
q-40 0 -75 15.5t-55 52.5q-9 -21 -22 -34.5t-27 -21t-29.5 -10t-29.5 -2.5h-13q-13 0 -17.5 10.5t-4.5 31.5q0 24 4.5 35t17.5 11h13zM343 179q0 44 -19.5 72t-68.5 28q-45 0 -66.5 -27t-21.5 -76q0 -44 24.5 -66t62.5 -22q45 0 67 23.5t22 67.5z" />
    <glyph glyph-name="nun.fina" unicode="&#x646;" horiz-adv-x="683" arabic-form="final" 
d="M672 0q-22 0 -44 8t-37 29v-18q0 -54 -17 -101.5t-48.5 -83t-77 -56t-102.5 -20.5h-61q-112 0 -174 69t-62 189v177h81v-174q0 -78 39 -126t128 -48h44q45 0 77.5 14t53.5 38t31 56t10 67v269h81v-131q0 -33 22 -51.5t56 -18.5h11q23 0 23 -43q0 -45 -23 -45h-11z
M356 308h-98v86h98v-86z" />
    <glyph glyph-name="nun.init" unicode="&#x646;" horiz-adv-x="305" arabic-form="initial" 
d="M91 88q36 0 56.5 19t20.5 54v128h82v-132q0 -76 -40.5 -116.5t-112.5 -40.5h-97q-13 0 -17.5 10.5t-4.5 31.5q0 24 4.5 35t17.5 11h91zM222 412h-98v86h98v-86z" />
    <glyph glyph-name="nun.medi" unicode="&#x646;" horiz-adv-x="340" arabic-form="medial" 
d="M73 88q78 0 78 73v128h82v-128q0 -20 6.5 -34t17.5 -22.5t25.5 -12.5t29.5 -4h28q23 0 23 -43q0 -45 -23 -45h-31q-36 0 -67.5 13t-52.5 51q-23 -38 -52.5 -51t-63.5 -13h-73q-13 0 -17.5 10.5t-4.5 31.5q0 24 4.5 35t17.5 11h73zM233 412h-98v86h98v-86z" />
    <glyph glyph-name="he.fina" unicode="&#x647;" horiz-adv-x="485" arabic-form="final" 
d="M219 123q47 0 72.5 19t25.5 48v125h-90q-47 0 -70.5 -30t-23.5 -79q0 -46 21.5 -64.5t64.5 -18.5zM397 172q0 -38 15 -61t53 -23h20q13 0 17.5 -10.5t4.5 -32.5q0 -23 -4.5 -34t-17.5 -11h-20q-48 0 -80.5 18.5t-47.5 66.5q-12 -15 -28.5 -24t-34.5 -14t-37 -7t-35 -2
q-72 0 -110 40t-38 121q0 37 10.5 72.5t31.5 63.5t52.5 45t73.5 17h95v68h80v-293z" />
    <glyph glyph-name="he.init" unicode="&#x647;" horiz-adv-x="708" arabic-form="initial" 
d="M253 311q-42 0 -67.5 -27.5t-25.5 -67.5q0 -21 8.5 -39t23 -32.5t32 -26t35.5 -20.5q15 9 30.5 20.5t28 25.5t20.5 31.5t8 38.5q0 43 -25.5 70t-67.5 27zM0 0q-13 0 -17.5 10.5t-4.5 31.5q0 24 4.5 35t17.5 11h169q-39 27 -62 61.5t-23 78.5q0 33 12 63.5t34.5 53.5
t55.5 37t74 14t71.5 -14t50.5 -37t30 -52t10 -59q0 -45 -19.5 -80.5t-58.5 -65.5h160q32 0 49 14.5t17 37.5q0 24 -24 54l-175 207l61 57l177 -211q28 -34 39 -63t11 -57q0 -27 -10 -50t-28.5 -40t-46.5 -27t-64 -10h-110q-46 0 -81.5 3t-56.5 14q-14 -6 -34.5 -9.5t-42 -5
t-42 -2t-34.5 -0.5h-109z" />
    <glyph glyph-name="he.medi" unicode="&#x647;" horiz-adv-x="532" arabic-form="medial" 
d="M89 88v86q0 36 7.5 73t26 66.5t50.5 48.5t81 19q37 0 65.5 -12.5t48 -33.5t29 -49.5t9.5 -61.5q0 -47 -19.5 -86t-52.5 -68t-77 -46.5t-93 -20.5v-71q0 -45 17 -63.5t46 -23.5l90 117q36 45 62 70.5t49 37.5t47 15t57 3q13 0 17.5 -10.5t4.5 -32.5q0 -23 -4.5 -34
t-17.5 -11q-28 0 -48.5 -2t-41 -13t-43 -33.5t-53.5 -62.5l-98 -131q-34 0 -63 9.5t-50.5 30t-33.5 52.5t-12 76v74h-89q-13 0 -17.5 10.5t-4.5 31.5q0 24 4.5 35t17.5 11h89zM164 85q43 2 74 13.5t51.5 29t30.5 38.5t10 43q0 38 -19.5 62t-59.5 24q-42 0 -64.5 -30
t-22.5 -87v-93z" />
    <glyph glyph-name="vav.fina" unicode="&#x648;" horiz-adv-x="483" arabic-form="final" 
d="M145 -155q41 0 72 12.5t51.5 33.5t31.5 49t13 60h-85q-51 0 -84 11t-52 32t-26.5 51.5t-7.5 68.5t11 72.5t32 60.5t52.5 41.5t73.5 15.5q33 0 63.5 -11t53.5 -34.5t36.5 -61.5t13.5 -92v-66h89q12 0 16.5 -10.5t4.5 -32.5q0 -23 -4.5 -34t-16.5 -11h-91q-2 -49 -19.5 -93
t-48.5 -77t-75 -52.5t-98 -19.5h-104l-6 87h104zM136 168q0 -43 20.5 -61.5t79.5 -18.5h79v62q0 63 -24.5 90.5t-68.5 27.5q-41 0 -63.5 -26.5t-22.5 -73.5z" />
    <glyph glyph-name="alef.maksura.fina" unicode="&#x649;" horiz-adv-x="695" arabic-form="final" 
d="M377 -155q47 0 79.5 8t52.5 22t28.5 32.5t8.5 38.5q0 22 -11.5 38t-40.5 16h-156l5 88h352q22 0 22 -43q0 -45 -22 -45h-93q13 -11 17.5 -27t4.5 -37q0 -27 -12 -58t-39.5 -57.5t-72.5 -44.5t-112 -18h-103q-112 0 -174 69t-62 189v177h81v-174q0 -78 39 -126t128 -48h80
z" />
    <glyph glyph-name="ye.arab.fina" unicode="&#x64a;" horiz-adv-x="695" arabic-form="final" 
d="M377 -155q47 0 79.5 8t52.5 22t28.5 32.5t8.5 38.5q0 22 -11.5 38t-40.5 16h-156l5 88h352q22 0 22 -43q0 -45 -22 -45h-93q13 -11 17.5 -27t4.5 -37q0 -27 -12 -58t-39.5 -57.5t-72.5 -44.5t-112 -18h-103q-112 0 -174 69t-62 189v177h81v-174q0 -78 39 -126t128 -48h80
zM434 -428h-88v84h88v-84zM298 -428h-89v84h89v-84z" />
    <glyph glyph-name=".notdef" horiz-adv-x="540" 
d="M462 0h-396v610h396v-610zM145 522v-434h238v434h-238z" />
    <glyph glyph-name=".null" horiz-adv-x="957" 
 />
    <glyph glyph-name="nonmarkingreturn" horiz-adv-x="957" 
 />
    <glyph glyph-name="line_feed" unicode="&#xa;" 
 />
    <glyph glyph-name="carriage_return" unicode="&#xd;" 
 />
    <glyph glyph-name="space" unicode=" " horiz-adv-x="147" 
 />
    <glyph glyph-name="exclam" unicode="!" horiz-adv-x="223" 
d="M151 477q0 -50 -1 -88.5t-3 -72t-4.5 -65t-5.5 -65.5h-50q-3 34 -6.5 65t-5.5 65t-3.5 72.5t-1.5 88.5v126h81v-126zM112 0q-52 0 -52 53q0 29 13.5 41.5t38.5 12.5t38 -12.5t13 -41.5q0 -53 -51 -53z" />
    <glyph glyph-name="quotedbl" unicode="&#x22;" horiz-adv-x="316" 
d="M54 610h73v-236h-73v236zM189 610h73v-236h-73v236z" />
    <glyph glyph-name="numbersign" unicode="#" horiz-adv-x="689" 
d="M214 379h-143v71h154l25 149l64 -9l-23 -140h155l27 149l64 -9l-24 -140h127v-71h-138l-29 -161h145v-69h-156l-26 -149l-64 9l24 140h-156l-27 -149l-64 9l25 140h-125v69h137zM408 218l27 161h-156l-27 -161h156z" />
    <glyph glyph-name="quotesingle" unicode="'" horiz-adv-x="180" 
d="M54 610h73v-236h-73v236z" />
    <glyph glyph-name="parenleft" unicode="(" horiz-adv-x="304" 
d="M130 212q0 -60 6.5 -107t21.5 -87t39 -76t59 -74l-50 -50q-36 35 -65 73.5t-49.5 85t-31.5 103.5t-11 129t11 129t31.5 103.5t49.5 84.5t65 73l50 -50q-35 -38 -59 -73.5t-39 -74.5t-21.5 -85t-6.5 -104z" />
    <glyph glyph-name="parenright" unicode=")" horiz-adv-x="304" 
d="M174.008 206.013q0 59.9971 -6.49902 106.994q-6.5 46.9971 -21.499 86.9941q-14.999 39.998 -38.998 75.9951q-23.998 35.998 -58.9961 73.9961l49.9971 49.9971q35.998 -34.998 64.9961 -73.4961q28.998 -38.4971 49.4971 -84.9941q20.498 -46.498 31.498 -103.494
q10.999 -56.9961 10.999 -128.992q0 -71.9951 -10.999 -128.992q-11 -56.9961 -31.498 -103.493q-20.499 -46.498 -49.4971 -84.4951q-28.998 -37.998 -64.9961 -72.9961l-49.9971 49.9971q34.998 37.998 58.9961 73.4961q23.999 35.498 38.998 74.4951
q14.999 38.998 21.499 84.9951q6.49902 45.9971 6.49902 103.993z" />
    <glyph glyph-name="asterisk" unicode="*" horiz-adv-x="506" 
d="M157 218l-55 44l99 126l-152 54l27 65l145 -59l-3 163h70l-3 -163l145 59l27 -65l-152 -54l99 -126l-55 -44l-96 133z" />
    <glyph glyph-name="plus" unicode="+" horiz-adv-x="500" 
d="M49 157v76h166v161h75v-161h161v-76h-161v-157h-75v157h-166z" />
    <glyph glyph-name="hyphen_minus" unicode="-" horiz-adv-x="500" 
d="M49 157v79h402v-79h-402z" />
    <glyph glyph-name="period" unicode="." horiz-adv-x="235" 
d="M118 0q-58 0 -58 61q0 62 58 62q57 0 57 -62q0 -61 -57 -61z" />
    <glyph glyph-name="slash" unicode="/" horiz-adv-x="555" 
d="M442 581l64 -42l-393 -616l-64 43z" />
    <glyph glyph-name="zero" unicode="0" horiz-adv-x="548" 
d="M503 260q0 -83 -17.5 -143.5t-48.5 -100t-73.5 -59t-91.5 -19.5q-48 0 -90 19.5t-72.5 59t-48 100t-17.5 143.5t17.5 144t48 100.5t72.5 59t90 19.5q49 0 91.5 -19.5t73.5 -59t48.5 -100.5t17.5 -144zM414 260q0 72 -11.5 120.5t-31 78.5t-45.5 42.5t-54 12.5
t-53.5 -12.5t-45 -42.5t-31 -78.5t-11.5 -120.5t11.5 -120.5t31 -78t45 -42t53.5 -12.5t54 12.5t45.5 42t31 78t11.5 120.5z" />
    <glyph glyph-name="one" unicode="1" horiz-adv-x="350" 
d="M263 577v-632h-85v484v22t1 22l-93 -84q-11 -8 -25.5 -8.5t-22.5 10.5l-25 29l180 157h70z" />
    <glyph glyph-name="two" unicode="2" horiz-adv-x="492" 
d="M422 22q30 0 30 -28v-49h-424v28q0 8 3.5 17.5t11.5 17.5l200 201q51 51 80.5 96t29.5 99q0 55 -31 82t-78 27q-46 0 -76.5 -25.5t-39.5 -66.5q-6 -15 -15.5 -21t-26.5 -2l-45 7q12 87 69 132.5t139 45.5q41 0 76 -12t60.5 -34.5t40 -55.5t14.5 -74q0 -36 -10.5 -66
t-28.5 -57t-41.5 -53t-49.5 -53l-163 -165q37 9 75 9h200z" />
    <glyph glyph-name="three" unicode="3" horiz-adv-x="504" 
d="M53 405q12 88 68.5 133t138.5 45q41 0 75.5 -11.5t59 -32.5t38.5 -51t14 -66q0 -62 -31 -97t-81 -49q63 -14 94 -53t31 -96q0 -44 -16.5 -79t-45.5 -59.5t-67.5 -37.5t-81.5 -13q-50 0 -85.5 12.5t-61 34t-41.5 52t-27 66.5l36 15q15 5 28.5 2.5t19.5 -14.5
q6 -13 14.5 -30t23 -32.5t36.5 -26t55 -10.5q32 0 56 11t40 28t24 37.5t8 40.5q0 25 -6 46t-23.5 36t-48.5 24t-80 9v59q80 1 113 31t33 78q0 54 -29.5 80t-77.5 26q-46 0 -76.5 -25.5t-40.5 -66.5q-10 -30 -42 -23z" />
    <glyph glyph-name="four" unicode="4" horiz-adv-x="527" 
d="M326 174v254q0 11 1 23t3 25l-224 -302h220zM493 174v-47q0 -17 -18 -17h-74v-165h-75v165h-277q-10 0 -16 5t-8 12l-9 42l305 407h80v-402h92z" />
    <glyph glyph-name="five" unicode="5" horiz-adv-x="471" 
d="M142 339q46 10 88 10q49 0 87 -14.5t63.5 -40.5t38.5 -61t13 -75q0 -50 -17.5 -91t-48.5 -69.5t-72.5 -44t-89.5 -15.5q-57 0 -103 20.5t-76 46.5l26 35q9 12 23 12q9 0 20.5 -7t27 -15t36.5 -15t50 -7q65 0 101.5 40t36.5 106q0 58 -33 92.5t-101 34.5q-49 0 -99 -17
l-54 15l51 296h302v-35q0 -17 -11.5 -28.5t-37.5 -11.5h-193z" />
    <glyph glyph-name="six" unicode="6" horiz-adv-x="511" 
d="M254 5q30 0 55 10t43 28t27.5 42t9.5 53q0 63 -36.5 97.5t-93.5 34.5q-30 0 -54.5 -10.5t-42 -28.5t-26.5 -41.5t-9 -48.5q0 -60 33 -98t94 -38zM178 290q42 42 109 42q38 0 72 -12.5t60 -36.5t41 -59t15 -80q0 -44 -16 -81.5t-45 -65t-69 -43.5t-89 -16t-88 15.5
t-66.5 43.5t-42 67.5t-14.5 88.5q0 42 18.5 89t57.5 100l158 214q6 8 18 13.5t28 5.5h76l-188 -235q-11 -14 -19.5 -26t-15.5 -24z" />
    <glyph glyph-name="seven" unicode="7" horiz-adv-x="463" 
d="M449 575v-36q0 -15 -3.5 -25t-7.5 -17l-256 -523q-6 -13 -17.5 -21t-29.5 -8h-61l260 516q7 11 13.5 21t14.5 18h-324q-8 0 -14 6t-6 14v55h431z" />
    <glyph glyph-name="eight" unicode="8" horiz-adv-x="513" 
d="M255 3q60 0 93.5 32t33.5 85q0 31 -10 54t-27.5 37t-40.5 21t-49 7t-49 -7t-40 -21t-27.5 -37t-10.5 -54q0 -53 33.5 -85t93.5 -32zM255 520q-55 0 -82.5 -31t-27.5 -73q0 -22 6 -42t19 -35.5t34 -24.5t51 -9t51 9t34 24.5t19 35.5t6 42q0 42 -27.5 73t-82.5 31zM345 274
q59 -17 92 -55t33 -101q0 -41 -15.5 -74.5t-44 -57t-68 -36t-87.5 -12.5t-87.5 12.5t-68 36t-44 57t-15.5 74.5q0 63 33 101t92 55q-51 17 -77 54t-26 89q0 35 14 65.5t39 53t60.5 35t79.5 12.5q43 0 79 -12.5t61 -35t39 -53t14 -65.5q0 -52 -26.5 -89t-76.5 -54z" />
    <glyph glyph-name="nine" unicode="9" horiz-adv-x="472" 
d="M107 391q0 -61 32 -93t88 -32q30 0 53.5 10t40 27t25 39t8.5 47q0 58 -34.5 92t-88.5 34q-57 0 -90.5 -35t-33.5 -89zM281 196q11 15 20 27.5t17 25.5q-23 -22 -54 -34t-66 -12t-67 12t-56 35t-38.5 56.5t-14.5 77.5q0 42 15.5 78t43 63t66 42.5t85.5 15.5q46 0 83.5 -15
t64 -42t41 -64.5t14.5 -82.5q0 -55 -19 -101t-54 -94l-152 -220q-6 -8 -17 -13.5t-26 -5.5h-80z" />
    <glyph glyph-name="colon" unicode=":" horiz-adv-x="235" 
d="M118 242q-58 0 -58 61q0 62 58 62q57 0 57 -62q0 -61 -57 -61zM118 0q-58 0 -58 61q0 62 58 62q57 0 57 -62q0 -61 -57 -61z" />
    <glyph glyph-name="less" unicode="&#x3c;" horiz-adv-x="456" 
d="M407 65l-34 -77l-324 174v79l324 176l34 -79l-269 -136z" />
    <glyph glyph-name="equal" unicode="=" horiz-adv-x="500" 
d="M49 58v79h402v-79h-402zM49 257v79h402v-79h-402z" />
    <glyph glyph-name="greater" unicode="&#x3e;" horiz-adv-x="456" 
d="M49.0244 65l33.998 -77l323.98 174v79l-323.98 176l-33.998 -79l268.984 -136z" />
    <glyph glyph-name="bracketleft" unicode="[" horiz-adv-x="305" 
d="M257 594v-76h-127v-619h127v-75h-203v770h203z" />
    <glyph glyph-name="backslash" unicode="\" horiz-adv-x="555" 
d="M113.027 581l-63.9961 -42l392.976 -616l63.9961 43z" />
    <glyph glyph-name="bracketright" unicode="]" horiz-adv-x="305" 
d="M48.0156 594v-76h126.992v-619h-126.992v-75h202.987v770h-202.987z" />
    <glyph glyph-name="underscore" unicode="_" horiz-adv-x="481" 
d="M49 58h383v-64h-383v64z" />
    <glyph glyph-name="braceleft" unicode="{" horiz-adv-x="362" 
d="M49 244q30 1 47 13t26 34t11.5 54t2.5 74q0 40 3.5 72t16.5 55t38 35.5t67 12.5h52v-76h-32q-19 0 -32 -4.5t-20.5 -16.5t-11 -32.5t-3.5 -52.5q0 -45 -2.5 -78.5t-10 -57.5t-21.5 -40.5t-36 -27.5q22 -11 36 -28t21.5 -41.5t10 -58t2.5 -78.5q0 -32 3.5 -52t11 -31.5
t20.5 -15.5t32 -4h32v-75h-52q-42 0 -67 12t-38 34t-16.5 54t-3.5 72q0 42 -2.5 74t-11.5 54t-26 33.5t-47 13.5v73z" />
    <glyph glyph-name="bar" unicode="|" horiz-adv-x="190" 
d="M136 -176h-82v770h82v-770z" />
    <glyph glyph-name="braceright" unicode="}" horiz-adv-x="362" 
d="M313.003 244q-29.998 1 -46.9971 13t-25.998 34q-9 22 -11.5 54t-2.5 74q0 40 -3.49902 72q-3.5 32 -16.499 55t-37.998 35.5q-24.998 12.5 -66.9961 12.5h-51.9961v-76h31.998q18.998 0 31.998 -4.5q12.999 -4.5 20.498 -16.5q7.5 -12 11 -32.5
q3.49902 -20.5 3.49902 -52.5q0 -45 2.5 -78.5t10 -57.5q7.49902 -24 21.498 -40.5t35.998 -27.5q-21.999 -11 -35.998 -28t-21.498 -41.5q-7.5 -24.5 -10 -58t-2.5 -78.5q0 -32 -3.49902 -52q-3.5 -20 -11 -31.5q-7.49902 -11.5 -20.498 -15.5q-13 -4 -31.998 -4h-31.998
v-75h51.9961q41.998 0 66.9961 12q24.999 12 37.998 34t16.499 54q3.49902 32 3.49902 72q0 42 2.5 74t11.5 54q8.99902 22 25.998 33.5t46.9971 13.5v73z" />
    <glyph glyph-name="nonbreakingspace" unicode="&#xa0;" horiz-adv-x="135" 
 />
    <glyph glyph-name="brokenbar" unicode="&#xa6;" horiz-adv-x="190" 
d="M136 280h-82v314h82v-314zM136 -176h-82v313h82v-313z" />
    <glyph glyph-name="guillemotleft" unicode="&#xab;" horiz-adv-x="436" 
d="M128 207q0 -34 2.5 -63.5t11.5 -58.5t25.5 -59t44.5 -65l-50 -44q-36 39 -58.5 76.5t-34.5 74t-16 71.5t-4 70t4 70t16 71.5t34.5 74t58.5 76.5l50 -44q-28 -35 -44.5 -65t-25.5 -59.5t-11.5 -60t-2.5 -65.5zM302 207q0 -34 2.5 -63.5t11.5 -58.5t25.5 -59t44.5 -65
l-50 -44q-36 39 -58.5 76.5t-34.5 74t-16 71.5t-4 70t4 70t16 71.5t34.5 74t58.5 76.5l50 -44q-28 -35 -44.5 -65t-25.5 -59.5t-11.5 -60t-2.5 -65.5z" />
    <glyph glyph-name="logicalnot" unicode="&#xac;" horiz-adv-x="500" 
d="M377 247h-328v76h402v-264h-74v188z" />
    <glyph glyph-name="softHyphen" unicode="&#xad;" horiz-adv-x="439" 
d="M49 147v79h341v-79h-341z" />
    <glyph glyph-name="degree" unicode="&#xb0;" horiz-adv-x="350" 
d="M49 473q0 26 10 49t27 40t40 27t49 10t49 -10t40 -27t27 -40t10 -49t-10 -48.5t-27 -39.5t-40 -27t-49 -10t-49 10t-40 27t-27 39.5t-10 48.5zM109 474q0 -28 19.5 -46.5t46.5 -18.5t46 18.5t19 46.5q0 27 -19 46t-46 19t-46.5 -19t-19.5 -46z" />
    <glyph glyph-name="plusminus" unicode="&#xb1;" horiz-adv-x="500" 
d="M49 0v79h402v-79h-402zM49 315v76h166v161h75v-161h161v-76h-161v-157h-75v157h-166z" />
    <glyph glyph-name="paragraph" unicode="&#xb6;" horiz-adv-x="469" 
d="M415 0h-73v539h-83v-539h-70v318q-38 0 -65 5t-43.5 19t-24 41t-7.5 72t8 72t25 42t44 20t66 5h223v-594z" />
    <glyph glyph-name="periodcentered" unicode="&#xb7;" horiz-adv-x="286" 
d="M140 198q-58 0 -58 61q0 62 58 62q57 0 57 -62q0 -61 -57 -61z" />
    <glyph glyph-name="guillemotright" unicode="&#xbb;" horiz-adv-x="436" 
d="M133.008 207q0 -34 -2.5 -63.5t-11.499 -58.5q-9 -29 -25.499 -59q-16.498 -30 -44.4971 -65l49.9971 -44q35.998 39 58.4961 76.5q22.499 37.5 34.498 74q12 36.5 15.999 71.5q4 35 4 70t-4 70q-3.99902 35 -15.999 71.5q-11.999 36.5 -34.498 74
q-22.498 37.5 -58.4961 76.5l-49.9971 -44q27.999 -35 44.4971 -65q16.499 -30 25.499 -59.5q8.99902 -29.5 11.499 -60t2.5 -65.5zM308.008 207q0 -34 -2.5 -63.5t-11.499 -58.5q-9 -29 -25.499 -59q-16.498 -30 -44.4971 -65l49.9971 -44q35.998 39 58.4961 76.5
q22.499 37.5 34.498 74q12 36.5 15.999 71.5q4 35 4 70t-4 70q-3.99902 35 -15.999 71.5q-11.999 36.5 -34.498 74q-22.498 37.5 -58.4961 76.5l-49.9971 -44q27.999 -35 44.4971 -65q16.499 -30 25.499 -59.5q8.99902 -29.5 11.499 -60t2.5 -65.5z" />
    <glyph glyph-name="multiply" unicode="&#xd7;" horiz-adv-x="481" 
d="M49 340l53 53l138 -137l137 136l53 -52l-137 -138l139 -138l-54 -54l-139 139l-137 -138l-53 53l137 138z" />
    <glyph glyph-name="divide" unicode="&#xf7;" horiz-adv-x="500" 
d="M199 91h99v-91h-99v91zM199 479h99v-91h-99v91zM49 200v79h402v-79h-402z" />
    <glyph glyph-name="darhezar" unicode="&#x609;" horiz-adv-x="1012" 
d="M836 209q25 0 48 -10.5t40.5 -28t28 -40t10.5 -46.5t-10.5 -46.5t-28 -40.5t-40.5 -28.5t-48 -10.5q-24 0 -47 10.5t-40.5 28.5t-28 40.5t-10.5 46.5t10.5 46.5t28 40t40.5 28t47 10.5zM836 25q11 0 22 5t19.5 13t13.5 18.5t5 22.5q0 23 -18.5 41t-41.5 18t-41.5 -18
t-18.5 -41q0 -12 5 -22.5t13.5 -18.5t19.5 -13t22 -5zM527 209q25 0 48 -10.5t40.5 -28t28 -40t10.5 -46.5t-10.5 -46.5t-28 -40.5t-40.5 -28.5t-48 -10.5q-24 0 -47 10.5t-40.5 28.5t-28 40.5t-10.5 46.5t10.5 46.5t28 40t40.5 28t47 10.5zM527 25q11 0 22 5t19.5 13
t13.5 18.5t5 22.5q0 23 -18.5 41t-41.5 18q-22 0 -41 -18t-19 -41q0 -12 5.5 -22.5t14 -18.5t19 -13t21.5 -5zM175 295q-24 0 -47 10.5t-40.5 28.5t-28 40.5t-10.5 46.5t10.5 46.5t28 40t40.5 28t47 10.5q25 0 48 -10.5t40.5 -28t28 -40t10.5 -46.5t-10.5 -46.5t-28 -40.5
t-40.5 -28.5t-48 -10.5zM175 480q-22 0 -41 -18t-19 -41t19 -41t41 -18q12 0 23 5t19.5 13t13.5 19t5 22t-5 21.5t-13.5 19t-19.5 13.5t-23 5zM516 581l64 -42l-393 -616l-64 43z" />
    <glyph glyph-name="darDahezar" unicode="&#x60a;" horiz-adv-x="1320" 
d="M1145 209q25 0 47.5 -10.5t40 -28t28 -40t10.5 -46.5t-10.5 -46.5t-28 -40.5t-40 -28.5t-47.5 -10.5q-24 0 -47 10.5t-40.5 28.5t-28 40.5t-10.5 46.5t10.5 46.5t28 40t40.5 28t47 10.5zM1145 25q11 0 22 5t19.5 13t13.5 18.5t5 22.5q0 23 -18.5 41t-41.5 18t-41.5 -18
t-18.5 -41q0 -12 5 -22.5t13.5 -18.5t19.5 -13t22 -5zM836 209q25 0 48 -10.5t40.5 -28t28 -40t10.5 -46.5t-10.5 -46.5t-28 -40.5t-40.5 -28.5t-48 -10.5q-24 0 -47 10.5t-40.5 28.5t-28 40.5t-10.5 46.5t10.5 46.5t28 40t40.5 28t47 10.5zM836 25q11 0 22 5t19.5 13
t13.5 18.5t5 22.5q0 23 -18.5 41t-41.5 18t-41.5 -18t-18.5 -41q0 -12 5 -22.5t13.5 -18.5t19.5 -13t22 -5zM527 209q25 0 48 -10.5t40.5 -28t28 -40t10.5 -46.5t-10.5 -46.5t-28 -40.5t-40.5 -28.5t-48 -10.5q-24 0 -47 10.5t-40.5 28.5t-28 40.5t-10.5 46.5t10.5 46.5
t28 40t40.5 28t47 10.5zM527 25q11 0 22 5t19.5 13t13.5 18.5t5 22.5q0 23 -18.5 41t-41.5 18q-22 0 -41 -18t-19 -41q0 -12 5.5 -22.5t14 -18.5t19 -13t21.5 -5zM175 295q-24 0 -47 10.5t-40.5 28.5t-28 40.5t-10.5 46.5t10.5 46.5t28 40t40.5 28t47 10.5q25 0 48 -10.5
t40.5 -28t28 -40t10.5 -46.5t-10.5 -46.5t-28 -40.5t-40.5 -28.5t-48 -10.5zM175 480q-22 0 -41 -18t-19 -41t19 -41t41 -18q12 0 23 5t19.5 13t13.5 19t5 22t-5 21.5t-13.5 19t-19.5 13.5t-23 5zM516 581l64 -42l-393 -616l-64 43z" />
    <glyph glyph-name="virgul" unicode="&#x60c;" horiz-adv-x="235" 
d="M118 0q-29 0 -43.5 16t-14.5 51q0 52 3.5 84.5t14.5 51.5t33 28t58 14v-51q-19 -4 -30 -8t-16 -11.5t-6.5 -19.5t-1.5 -32q30 0 45 -14t15 -48q0 -61 -57 -61z" />
    <glyph glyph-name="tarikh.sep" unicode="&#x60d;" horiz-adv-x="403" 
d="M282 290l67 -46l-228 -354l-67 45z" />
    <glyph glyph-name="noqte_virgul" unicode="&#x61b;" horiz-adv-x="235" 
d="M118 242q-29 0 -43.5 16t-14.5 51q0 52 3.5 84.5t14.5 51.5t33 28t58 14v-51q-19 -4 -30 -8t-16 -11.5t-6.5 -19.5t-1.5 -32q30 0 45 -14t15 -48q0 -61 -57 -61zM118 0q-58 0 -58 61q0 62 58 62q57 0 57 -62q0 -61 -57 -61z" />
    <glyph glyph-name="soal" unicode="&#x61f;" horiz-adv-x="422" 
d="M285 418q0 47 -17 75t-59 28q-31 0 -50.5 -20t-19.5 -49q0 -25 13 -43t38 -43q20 -21 32.5 -37t19 -35t9 -45.5t2.5 -66.5h-79q0 32 -1 51t-6.5 32.5t-16 26t-28.5 32.5q-27 30 -44.5 60.5t-17.5 72.5q0 33 12 60t32.5 46.5t47.5 30.5t58 11q80 0 115.5 -51t35.5 -136
h-76zM209 0q-52 0 -52 53q0 29 13.5 41.5t38.5 12.5t38.5 -12.5t13.5 -41.5q0 -53 -52 -53z" />
    <glyph glyph-name="kashidas" unicode="&#x640;" horiz-adv-x="165" 
d="M165 88q13 0 17.5 -10.5t4.5 -32.5q0 -23 -4.5 -34t-17.5 -11h-165q-13 0 -17.5 10.5t-4.5 31.5q0 24 4.5 35t17.5 11h165z" />
    <glyph glyph-name=".an" unicode="&#x64b;" 
d="M110 146l19 -49l-233 -97l-19 48zM105 273l19 -49l-233 -97l-19 48z" />
    <glyph glyph-name=".on" unicode="&#x64c;" 
d="M3 97q-21 14 -32 34t-11 42q0 20 7.5 37.5t20 30t29.5 20t36 7.5q42 0 68.5 -27t26.5 -69q0 -31 -19 -57.5t-66 -47.5l-163 -67l-22 43v72q0 22 -18 22h-38v49h55q20 0 31 -10t11 -36v-76zM7 171q0 -17 12 -32t32 -25q20 8 34.5 22.5t14.5 34.5q0 17 -12 32.5t-35 15.5
q-24 0 -35 -15.5t-11 -32.5z" />
    <glyph glyph-name=".en" unicode="&#x64d;" 
d="M110 -126l19 -49l-233 -97l-19 48zM105 1l19 -49l-233 -97l-19 48z" />
    <glyph glyph-name=".a" unicode="&#x64e;" 
d="M107 146l19 -49l-233 -97l-19 48z" />
    <glyph glyph-name=".o" unicode="&#x64f;" 
d="M-136 48l124 49q-21 14 -32 34t-11 42q0 20 7.5 37.5t20 30t29.5 20t37 7.5q42 0 67.5 -27t25.5 -69q0 -31 -19 -57.5t-65 -47.5l-163 -67zM-8 171q0 -17 12 -32t32 -25q20 8 34.5 22.5t14.5 34.5q0 17 -11.5 32.5t-34.5 15.5q-25 0 -36 -15.5t-11 -32.5z" />
    <glyph glyph-name=".e" unicode="&#x650;" 
d="M107 1l19 -49l-233 -97l-19 48z" />
    <glyph glyph-name=".shdd" unicode="&#x651;" 
d="M0 17q-7 -7 -15 -12t-18 -5h-32q-13 0 -29 4t-30.5 16.5t-24 36t-9.5 62.5v62h52v-73q0 -33 15 -44.5t38 -11.5h27v129h52v-129h27q23 0 38 11.5t15 44.5v73h51v-62q0 -39 -10 -62.5t-24.5 -36t-31 -16.5t-29.5 -4h-29q-11 0 -18.5 5t-14.5 12z" />
    <glyph glyph-name=".skn" unicode="&#x652;" 
d="M-104 103q0 22 8 41.5t22 33t33 21.5t41 8t41 -8t33 -21.5t22 -33t8 -41.5q0 -44 -29.5 -73.5t-74.5 -29.5q-44 0 -74 29.5t-30 73.5zM-53 103q0 -22 16 -37t37 -15q22 0 37.5 15t15.5 37q0 23 -15.5 38.5t-37.5 15.5q-21 0 -37 -15.5t-16 -38.5z" />
    <glyph glyph-name=".mad" unicode="&#x653;" 
d="M-16 64q-18 0 -29.5 -1.5t-21 -7.5t-20 -19t-26.5 -36l-37 25q20 33 34 51.5t27.5 27.5t31 11t45.5 2h161l-5 -53h-160z" />
    <glyph glyph-name=".thmz" unicode="&#x654;" 
d="M105 88l-187 -94l-22 46l65 32q-28 10 -40.5 33t-12.5 47q0 42 27 68t69 26h47l-5 -52h-33q-25 0 -38.5 -13.5t-13.5 -33.5t14 -32.5t32 -12.5q13 0 32.5 8.5t44.5 22.5z" />
    <glyph glyph-name=".bhmz" unicode="&#x655;" 
d="M105 -157l-187 -94l-22 46l65 32q-28 10 -40.5 33t-12.5 47q0 42 27 68t69 26h47l-5 -52h-33q-25 0 -38.5 -13.5t-13.5 -33.5t14 -32.5t32 -12.5q13 0 32.5 8.5t44.5 22.5z" />
    <glyph glyph-name=".i" unicode="&#x656;" 
d="M-26 0h52v-173h-52v173z" />
    <glyph glyph-name="sefr.arab" unicode="&#x660;" horiz-adv-x="444" 
d="M222 388q33 0 64 -14.5t55.5 -38t39 -54.5t14.5 -64t-14.5 -63.5t-39 -54.5t-55.5 -38t-64 -14t-64 14t-55.5 38t-39 54.5t-14.5 63.5t14.5 64t39 54.5t55.5 38t64 14.5zM222 125q17 0 34 7.5t30.5 20t21.5 29.5t8 35q0 17 -8 33.5t-21.5 29.5t-30.5 21t-34 8
q-18 0 -34.5 -8t-30 -21t-21.5 -29.5t-8 -33.5q0 -18 8 -35t21.5 -29.5t30 -20t34.5 -7.5z" />
    <glyph glyph-name="yek.arab" unicode="&#x661;" horiz-adv-x="226" 
d="M90 -61v243q0 60 -3.5 104t-9.5 81t-14.5 69t-18.5 68l78 29q13 -40 22.5 -76.5t15.5 -76.5t9 -86.5t3 -106.5v-248h-82z" />
    <glyph glyph-name="do.arab" unicode="&#x662;" horiz-adv-x="435" 
d="M245 238q-51 0 -77 33q2 -21 3 -44.5t1 -48.5v-239h-82v243q0 60 -3.5 104t-9.5 81t-14.5 69t-18.5 68l78 29q12 -42 19 -71.5t17 -62.5q9 -32 26 -52.5t52 -20.5q30 0 50.5 17t20.5 46q0 42 -17 127l79 17q8 -37 12.5 -74.5t4.5 -69.5q0 -68 -39 -109.5t-102 -41.5z" />
    <glyph glyph-name="se.arab" unicode="&#x663;" horiz-adv-x="640" 
d="M369 533q8 -37 12.5 -74.5t4.5 -69.5q0 -15 -4 -32q12 -15 29 -23t33 -8q31 0 50 18.5t19 42.5q0 22 -4 54.5t-12 74.5l78 17q8 -37 12 -74.5t4 -72.5q0 -32 -10 -59t-28.5 -46.5t-44 -31t-55.5 -11.5q-28 0 -54 11t-51 37q-18 -23 -43.5 -35.5t-59.5 -12.5q-51 0 -77 33
q2 -21 3 -44.5t1 -48.5v-239h-82v243q0 60 -3.5 104t-9.5 81t-14.5 69t-18.5 68l78 29q12 -42 19 -71.5t17 -62.5q9 -32 26 -52.5t52 -20.5q30 0 50.5 17t20.5 46q0 42 -17 127l79 17v0z" />
    <glyph glyph-name="char.arab" unicode="&#x664;" horiz-adv-x="398" 
d="M49 58q0 16 4.5 34t18 38t37.5 44t64 52q-65 13 -94.5 52.5t-29.5 90.5q0 33 12.5 63.5t35 54.5t53.5 38t67 14q31 0 55 -7.5t49 -19.5l-22 -78q-19 8 -38.5 12.5t-37.5 4.5q-21 0 -38 -7t-29.5 -18.5t-19 -26.5t-6.5 -31q0 -35 27.5 -55.5t82.5 -20.5h50v-73
q-50 -31 -80.5 -53t-47.5 -37.5t-22.5 -27t-5.5 -22.5q0 -20 16 -33.5t49 -13.5h158l-6 -87h-161q-71 0 -106 31.5t-35 81.5z" />
    <glyph glyph-name="panj.arab" unicode="&#x665;" horiz-adv-x="516" 
d="M49 102q0 29 7 60t24.5 67.5t48 79.5t77.5 95l-43 42l54 60q73 -68 121.5 -123.5t77.5 -102.5t40.5 -87t11.5 -77q0 -45 -15.5 -79t-43.5 -57t-66.5 -34.5t-84.5 -11.5h-16q-96 0 -144.5 45.5t-48.5 122.5zM386 122q0 41 -28 97t-101 128q-63 -65 -95 -122t-32 -105
q0 -45 29 -71.5t86 -26.5h13q60 0 94 27t34 73z" />
    <glyph glyph-name="shish.arab" unicode="&#x666;" horiz-adv-x="449" 
d="M364 280q0 -60 3 -104.5t9 -81.5t15 -69.5t20 -67.5l-76 -29q-13 39 -23 75t-16.5 76t-10 87t-3.5 109v153q0 14 -13 14q-3 0 -17.5 -1.5t-35 -3.5t-44 -3.5t-44.5 -1.5q-14 0 -28 1t-27 5t-24 11.5t-20 20.5l26 71q14 -12 32.5 -16.5t49.5 -4.5q24 0 48.5 1.5t47 3.5
t42 3.5t33.5 1.5q29 0 42.5 -16t13.5 -43v-191z" />
    <glyph glyph-name="haft.arab" unicode="&#x667;" horiz-adv-x="556" 
d="M278 97q10 58 24 112.5t34 108.5t47.5 109.5t65.5 116.5l68 -44q-37 -61 -68 -120.5t-56.5 -125.5t-46.5 -143t-39 -172h-58q-18 95 -39 172t-46.5 143t-56.5 125.5t-68 120.5l67 44q38 -61 66 -116.5t48 -109.5t33.5 -108.5t24.5 -112.5z" />
    <glyph glyph-name="hasht.arab" unicode="&#x668;" horiz-adv-x="556" 
d="M278 375q-11 -58 -24.5 -112t-33.5 -108t-48 -110t-66 -117l-67 45q37 61 68 120.5t56.5 125.5t46.5 142.5t39 171.5h58q18 -95 39 -171.5t46.5 -142.5t56.5 -125.5t68 -120.5l-68 -45q-38 61 -65.5 117t-47.5 110t-34 108t-24 112z" />
    <glyph glyph-name="noh.arab" unicode="&#x669;" horiz-adv-x="437" 
d="M303 -61v273q-26 -12 -53.5 -16.5t-54.5 -4.5q-39 0 -67.5 11.5t-46.5 32t-26.5 47.5t-8.5 58q0 37 12 73t34.5 64t54.5 45t71 17q45 0 76.5 -19.5t51 -53.5t28.5 -78.5t9 -93.5v-355h-80zM303 305q0 31 -5 58t-16 47t-28.5 32t-42.5 12q-20 0 -36 -9t-27 -24t-17 -33.5
t-6 -36.5q0 -33 21 -51t61 -18q53 0 96 23z" />
    </font>
</defs>
</svg>
