<?xml version="1.0" standalone="no"?>
<!DOCTYPE svg PUBLIC "-//W3C//DTD SVG 1.1//EN" "http://www.w3.org/Graphics/SVG/1.1/DTD/svg11.dtd" >
<svg xmlns="http://www.w3.org/2000/svg" xmlns:xlink="http://www.w3.org/1999/xlink" version="1.1">
<metadata>
Created by FontForge 20170731 at Sat Sep 30 20:32:39 2017
 By Aleksey,,,
Copyright (c) 2015 by Reza Bakhtiarifard / Bakh. All rights reserved.
</metadata>
<defs>
<font id="YekanBakh-Thin" horiz-adv-x="0" >
  <font-face 
    font-family="Yekan Bakh Thin"
    font-weight="200"
    font-stretch="normal"
    units-per-em="1000"
    panose-1="1 0 5 4 0 0 0 2 0 4"
    ascent="800"
    descent="-200"
    bbox="-190 -484 1317 929"
    underline-thickness="25"
    underline-position="-154"
    unicode-range="U+000A-FFFC"
  />
<missing-glyph horiz-adv-x="530" 
d="M462 0h-396v610h396v-610zM103 572v-533h323v533h-323z" />
    <glyph glyph-name="allah" unicode="&#x627;&#xfedf;&#xfee0;&#xfeea;" horiz-adv-x="1213" arabic-form="isolated" 
d="M360 463h37v-305q0 -26 4.5 -48t15 -37.5t28.5 -24.5t46 -9h76q47 0 73 24t26 63v266h37v-262q0 -26 8 -43t21.5 -28t30.5 -15.5t34 -4.5h39q44 0 71 24t27 63v359h37v-355q0 -60 -37.5 -95t-96.5 -35h-41q-35 0 -66 14t-48 53q-21 -39 -52 -53t-64 -14h-75
q-43 0 -76.5 20.5t-47.5 78.5q-12 -17 -31 -28t-40.5 -17t-43.5 -8.5t-40 -2.5q-75 0 -114 35.5t-39 115.5q0 37 10.5 72.5t31.5 63.5t53 45t75 17h131v71zM225 354q-60 0 -95 -42.5t-35 -111.5q0 -35 8.5 -58t24.5 -37t39.5 -19.5t52.5 -5.5q63 0 101.5 24.5t38.5 60.5v189
h-135zM671 929h28v-171h-28v171zM699 686v-154h54q30 0 50 17t20 60v77h28v-62q0 -39 -10 -62.5t-25 -36t-31.5 -16.5t-29.5 -4h-41q-9 0 -15 2.5t-14 9.5q-8 -7 -14 -9.5t-14 -2.5h-42q-13 0 -29.5 4t-31 16.5t-24.5 36t-10 62.5v62h27v-77q0 -43 20.5 -60t50.5 -17h53v154
h28zM1101 620h38v-620h-38v620z" />
    <glyph glyph-name="la.aa" unicode="&#xfedf;&#xfe82;" horiz-adv-x="486" arabic-form="isolated" 
d="M73 492h38v-453h165q44 0 71.5 24t27.5 63v494h38v-490q0 -30 -10.5 -54t-28.5 -41t-42.5 -26t-53.5 -9h-205v492zM58 605q-17 0 -29.5 -3.5t-21.5 -23.5l-20 -44l-27 12l23 49q7 17 14.5 26.5t16.5 14t19.5 5.5t24.5 1h170l-1 -37h-169z" />
    <glyph glyph-name="la.aa.fina" unicode="&#xfee0;&#xfe82;" horiz-adv-x="520" arabic-form="final" 
d="M73 0v492h38v-453h164q48 0 74 24.5t26 64.5v492h38v-492q0 -26 8.5 -43t22 -27t30.5 -14.5t34 -4.5h12q12 0 16.5 -5.5t4.5 -13.5q0 -10 -4.5 -15t-16.5 -5h-12q-38 0 -69 14t-48 53q-21 -39 -52 -53t-64 -14h-202zM58 605q-17 0 -29.5 -3.5t-21.5 -23.5l-20 -44l-27 12
l23 49q7 17 14.5 26.5t16.5 14t19.5 5.5t24.5 1h170l-1 -37h-169z" />
    <glyph glyph-name="la.thmz" unicode="&#xfedf;&#xfe84;" horiz-adv-x="486" arabic-form="isolated" 
d="M73 452h38v-413h165q44 0 71.5 24t27.5 63v494h38v-490q0 -30 -10.5 -54t-28.5 -41t-42.5 -26t-53.5 -9h-205v452zM209 613l-185 -94l-13 26l75 37q-19 3 -32.5 11.5t-22 21t-12.5 27t-4 28.5q0 42 26 68t68 26h47l-5 -28h-36q-35 0 -53.5 -20t-18.5 -47q0 -31 20.5 -49
t46.5 -18q16 0 38 11l50 25z" />
    <glyph glyph-name="la.thmz.fina" unicode="&#xfee0;&#xfe84;" horiz-adv-x="520" arabic-form="final" 
d="M73 0v452h38v-413h164q48 0 74 24.5t26 64.5v492h38v-492q0 -26 8.5 -43t22 -27t30.5 -14.5t34 -4.5h12q12 0 16.5 -5.5t4.5 -13.5q0 -10 -4.5 -15t-16.5 -5h-12q-38 0 -69 14t-48 53q-21 -39 -52 -53t-64 -14h-202zM209 613l-185 -94l-13 26l75 37q-19 3 -32.5 11.5
t-22 21t-12.5 27t-4 28.5q0 42 26 68t68 26h47l-5 -28h-36q-35 0 -53.5 -20t-18.5 -47q0 -31 20.5 -49t46.5 -18q16 0 38 11l50 25z" />
    <glyph glyph-name="la.bhmz" unicode="&#xfedf;&#xfe88;" horiz-adv-x="486" arabic-form="isolated" 
d="M73 620h38v-581h165q44 0 71.5 24t27.5 63v494h38v-490q0 -30 -10.5 -54t-28.5 -41t-42.5 -26t-53.5 -9h-205v620zM246 -259l-185 -94l-13 26l75 37q-19 3 -32.5 11.5t-22 21t-12.5 27t-4 28.5q0 42 26 68t68 26h47l-5 -28h-36q-35 0 -53.5 -20t-18.5 -47q0 -31 20.5 -49
t46.5 -18q16 0 38 11l50 25z" />
    <glyph glyph-name="la.bhmz.fina" unicode="&#xfee0;&#xfe88;" horiz-adv-x="520" arabic-form="final" 
d="M73 0v620h38v-581h164q48 0 74 24.5t26 64.5v492h38v-492q0 -26 8.5 -43t22 -27t30.5 -14.5t34 -4.5h12q12 0 16.5 -5.5t4.5 -13.5q0 -10 -4.5 -15t-16.5 -5h-12q-38 0 -69 14t-48 53q-21 -39 -52 -53t-64 -14h-202zM246 -259l-185 -94l-13 26l75 37q-19 3 -32.5 11.5
t-22 21t-12.5 27t-4 28.5q0 42 26 68t68 26h47l-5 -28h-36q-35 0 -53.5 -20t-18.5 -47q0 -31 20.5 -49t46.5 -18q16 0 38 11l50 25z" />
    <glyph glyph-name="la" unicode="&#xfedf;&#xfe8e;" horiz-adv-x="486" arabic-form="isolated" 
d="M73 620h38v-581h165q44 0 71.5 24t27.5 63v494h38v-490q0 -30 -10.5 -54t-28.5 -41t-42.5 -26t-53.5 -9h-205v620z" />
    <glyph glyph-name="la.fina" unicode="&#xfee0;&#xfe8e;" horiz-adv-x="520" arabic-form="final" 
d="M73 0v620h38v-581h164q48 0 74 24.5t26 64.5v492h38v-492q0 -26 8.5 -43t22 -27t30.5 -14.5t34 -4.5h12q12 0 16.5 -5.5t4.5 -13.5q0 -10 -4.5 -15t-16.5 -5h-12q-38 0 -69 14t-48 53q-21 -39 -52 -53t-64 -14h-202z" />
    <glyph glyph-name="la.tvasla" unicode="&#xfedf;&#xfb51;" horiz-adv-x="486" 
d="M73 465h38v-426h165q44 0 71.5 24t27.5 63v494h38v-490q0 -30 -10.5 -54t-28.5 -41t-42.5 -26t-53.5 -9h-205v465zM17 580q21 42 40.5 71t38 47t36 26t35.5 8q16 0 31 -7t26.5 -19t18 -28t6.5 -35q0 -15 -5 -31.5t-17 -30.5t-32 -23.5t-51 -9.5h-134l-19 18v101l26 5v-92
zM143 575q32 0 56 16.5t24 51.5q0 23 -16.5 42t-42.5 19q-17 0 -33 -10t-31 -27.5t-29.5 -41t-29.5 -50.5h102z" />
    <glyph glyph-name="la.tvasla.fina" unicode="&#xfee0;&#xfb51;" horiz-adv-x="520" 
d="M73 0v465h38v-426h164q48 0 74 24.5t26 64.5v492h38v-492q0 -26 8.5 -43t22 -27t30.5 -14.5t34 -4.5h12q12 0 16.5 -5.5t4.5 -13.5q0 -10 -4.5 -15t-16.5 -5h-12q-38 0 -69 14t-48 53q-21 -39 -52 -53t-64 -14h-202zM17 580q21 42 40.5 71t38 47t36 26t35.5 8q16 0 31 -7
t26.5 -19t18 -28t6.5 -35q0 -15 -5 -31.5t-17 -30.5t-32 -23.5t-51 -9.5h-134l-19 18v101l26 5v-92zM143 575q32 0 56 16.5t24 51.5q0 23 -16.5 42t-42.5 19q-17 0 -33 -10t-31 -27.5t-29.5 -41t-29.5 -50.5h102z" />
    <glyph glyph-name="lellah" unicode="&#xfedf;&#x650;&#xfee0;&#x654;&#xfeea;" horiz-adv-x="1040" 
d="M360 463h37v-305q0 -26 4.5 -48t15 -37.5t28.5 -24.5t46 -9h76q47 0 73 24t26 63v266h37v-262q0 -26 8 -43t21.5 -28t30.5 -15.5t34 -4.5h39q44 0 71 24t27 63v359h37v-355q0 -60 -37.5 -95t-96.5 -35h-41q-35 0 -66 14t-48 53q-21 -39 -52 -53t-64 -14h-75
q-43 0 -76.5 20.5t-47.5 78.5q-12 -17 -31 -28t-40.5 -17t-43.5 -8.5t-40 -2.5q-75 0 -114 35.5t-39 115.5q0 37 10.5 72.5t31.5 63.5t53 45t75 17h131v71zM225 354q-60 0 -95 -42.5t-35 -111.5q0 -35 8.5 -58t24.5 -37t39.5 -19.5t52.5 -5.5q63 0 101.5 24.5t38.5 60.5v189
h-135zM671 929h28v-171h-28v171zM699 686v-154h54q30 0 50 17t20 60v77h28v-62q0 -39 -10 -62.5t-25 -36t-31.5 -16.5t-29.5 -4h-41q-9 0 -15 2.5t-14 9.5q-8 -7 -14 -9.5t-14 -2.5h-42q-13 0 -29.5 4t-31 16.5t-24.5 36t-10 62.5v62h27v-77q0 -43 20.5 -60t50.5 -17h53v154
h28z" />
    <glyph glyph-name="hmz" unicode="&#x621;" horiz-adv-x="431" arabic-form="isolated" 
d="M66 29l129 65q-37 5 -63 18.5t-43 33t-25 44t-8 50.5q0 35 12.5 63.5t33 49t47.5 31.5t57 11q25 0 47.5 -6.5t40.5 -15.5l-14 -35q-12 6 -32.5 12t-40.5 6q-53 0 -84 -33.5t-31 -83.5q0 -48 33 -80.5t95 -32.5q25 0 58 14t87 43l18 -34l-299 -155z" />
    <glyph glyph-name="alef.aa" unicode="&#x622;" horiz-adv-x="185" arabic-form="isolated" 
d="M73 492h38v-492h-38v492zM48 605q-17 0 -29.5 -3.5t-21.5 -23.5l-20 -44l-27 12l23 49q7 17 14.5 26.5t16.5 14t19.5 5.5t24.5 1h170l-1 -37h-169z" />
    <glyph glyph-name="alef.thmz" unicode="&#x623;" horiz-adv-x="185" arabic-form="isolated" 
d="M73 452h38v-452h-38v452zM193 613l-185 -94l-13 26l75 37q-19 3 -32.5 11.5t-22 21t-12.5 27t-4 28.5q0 42 26 68t68 26h47l-5 -28h-36q-35 0 -53.5 -20t-18.5 -47q0 -31 20.5 -49t46.5 -18q16 0 38 11l50 25z" />
    <glyph glyph-name="vav.thmz" unicode="&#x624;" horiz-adv-x="451" arabic-form="isolated" 
d="M148 -204q48 0 86 16.5t64 44.5t40 65t16 78h-124q-51 0 -84 11t-52 31.5t-26.5 49t-7.5 64.5q0 37 10.5 71t31.5 59.5t52 41t72 15.5q33 0 63 -11t53 -34t36.5 -60t13.5 -89v-133q0 -51 -16.5 -98t-47 -82.5t-75 -56.5t-100.5 -21h-108l-6 38h109zM97 157
q0 -31 6.5 -53.5t23.5 -36.5t46 -21t73 -7h108v96q0 90 -35.5 130t-98.5 40q-58 0 -90.5 -41t-32.5 -107zM306 506l-185 -94l-13 26l75 37q-19 3 -32.5 11.5t-22 21t-12.5 27t-4 28.5q0 42 26 68t68 26h47l-5 -28h-36q-35 0 -53.5 -20t-18.5 -47q0 -31 20.5 -49t46.5 -18
q16 0 38 11l50 25z" />
    <glyph glyph-name="alef.bhmz" unicode="&#x625;" horiz-adv-x="185" arabic-form="isolated" 
d="M73 620h38v-620h-38v620zM198 -259l-185 -94l-13 26l75 37q-19 3 -32.5 11.5t-22 21t-12.5 27t-4 28.5q0 42 26 68t68 26h47l-5 -28h-36q-35 0 -53.5 -20t-18.5 -47q0 -31 20.5 -49t46.5 -18q16 0 38 11l50 25z" />
    <glyph glyph-name="ye.thmz" unicode="&#x626;" horiz-adv-x="676" arabic-form="isolated" 
d="M367 -204q43 0 82.5 13.5t69.5 37t48 55.5t18 69q0 16 -3.5 30t-14 24.5t-28.5 17t-46 6.5h-176v159q0 75 43.5 121t118.5 46h115l5 -39h-125q-22 0 -43.5 -7.5t-38.5 -23t-27.5 -38.5t-10.5 -53v-127h146q37 0 61 -9.5t37.5 -24.5t18.5 -34.5t5 -39.5q0 -46 -20 -86
t-54 -70t-79 -47.5t-96 -17.5h-83q-112 0 -174 69t-62 189v172h37v-171q0 -49 12.5 -89.5t38 -70t64.5 -45.5t91 -16h70zM261 418l-185 -94l-13 26l75 37q-19 3 -32.5 11.5t-22 21t-12.5 27t-4 28.5q0 42 26 68t68 26h47l-5 -28h-36q-35 0 -53.5 -20t-18.5 -47
q0 -31 20.5 -49t46.5 -18q16 0 38 11l50 25z" />
    <glyph glyph-name="alef" unicode="&#x627;" horiz-adv-x="185" arabic-form="isolated" 
d="M73 620h38v-620h-38v620z" />
    <glyph glyph-name="be" unicode="&#x628;" horiz-adv-x="769" arabic-form="isolated" 
d="M208 0q-41 0 -70 12.5t-48 33.5t-27.5 49t-8.5 59v128h37v-120q0 -55 29 -89t97 -34h360q45 0 72.5 24.5t27.5 64.5v154h37v-152q0 -60 -38 -95t-96 -35h-372zM407 -171h-64v52h64v-52z" />
    <glyph glyph-name="te.marbuta" unicode="&#x629;" horiz-adv-x="460" arabic-form="isolated" 
d="M54 154q0 31 8.5 58.5t27 57t47.5 62.5t70 74l-47 47l27 28q62 -62 104 -107t67.5 -80t36.5 -65.5t11 -63.5q0 -35 -13.5 -65.5t-38 -52.5t-57.5 -34.5t-72 -12.5t-71 11.5t-54 32t-34 49t-12 61.5zM369 161q0 25 -7 48t-23.5 48.5t-43 54.5t-65.5 67
q-44 -43 -71.5 -75.5t-42.5 -58t-20 -46.5t-5 -42q0 -51 36 -84.5t99 -33.5q31 0 57 10t45 26.5t30 38.5t11 47zM302 570h-60v51h60v-51zM188 570h-62v51h62v-51z" />
    <glyph glyph-name="te" unicode="&#x62a;" horiz-adv-x="769" arabic-form="isolated" 
d="M208 0q-41 0 -70 12.5t-48 33.5t-27.5 49t-8.5 59v128h37v-120q0 -55 29 -89t97 -34h360q45 0 72.5 24.5t27.5 64.5v154h37v-152q0 -60 -38 -95t-96 -35h-372zM471 374h-60v51h60v-51zM357 374h-62v51h62v-51z" />
    <glyph glyph-name="the" unicode="&#x62b;" horiz-adv-x="769" arabic-form="isolated" 
d="M208 0q-41 0 -70 12.5t-48 33.5t-27.5 49t-8.5 59v128h37v-120q0 -55 29 -89t97 -34h360q45 0 72.5 24.5t27.5 64.5v154h37v-152q0 -60 -38 -95t-96 -35h-372zM415 479h-62v51h62v-51zM471 374h-60v51h60v-51zM357 374h-62v51h62v-51z" />
    <glyph glyph-name="jim" unicode="&#x62c;" horiz-adv-x="539" arabic-form="isolated" 
d="M443 219q-8 27 -18 48t-26 35.5t-39.5 22t-59.5 7.5h-213l6 39h210q25 0 51.5 -3t50.5 -19.5t45 -51t35 -96.5l-198 -116q-52 -31 -90 -59t-62.5 -56.5t-36.5 -58t-12 -62.5q0 -97 51.5 -146.5t160.5 -49.5h187l-6 -38h-186q-68 0 -115 18t-75.5 49t-41 72.5t-12.5 87.5
q0 38 11 72.5t35.5 66.5t64 64t96.5 66zM366 -159h-64v52h64v-52z" />
    <glyph glyph-name="him" unicode="&#x62d;" horiz-adv-x="539" arabic-form="isolated" 
d="M443 219q-8 27 -18 48t-26 35.5t-39.5 22t-59.5 7.5h-213l6 39h210q25 0 51.5 -3t50.5 -19.5t45 -51t35 -96.5l-198 -116q-52 -31 -90 -59t-62.5 -56.5t-36.5 -58t-12 -62.5q0 -97 51.5 -146.5t160.5 -49.5h187l-6 -38h-186q-68 0 -115 18t-75.5 49t-41 72.5t-12.5 87.5
q0 38 11 72.5t35.5 66.5t64 64t96.5 66z" />
    <glyph glyph-name="khe" unicode="&#x62e;" horiz-adv-x="539" arabic-form="isolated" 
d="M443 219q-8 27 -18 48t-26 35.5t-39.5 22t-59.5 7.5h-213l6 39h210q25 0 51.5 -3t50.5 -19.5t45 -51t35 -96.5l-198 -116q-52 -31 -90 -59t-62.5 -56.5t-36.5 -58t-12 -62.5q0 -97 51.5 -146.5t160.5 -49.5h187l-6 -38h-186q-68 0 -115 18t-75.5 49t-41 72.5t-12.5 87.5
q0 38 11 72.5t35.5 66.5t64 64t96.5 66zM281 490h-64v52h64v-52z" />
    <glyph glyph-name="dal" unicode="&#x62f;" horiz-adv-x="535" arabic-form="isolated" 
d="M436 229q24 -28 34.5 -54.5t10.5 -52.5q0 -54 -38 -88t-106 -34h-288l-6 39h291q51 0 79 23.5t28 61.5q0 19 -9.5 41t-26.5 41l-197 223l28 27z" />
    <glyph glyph-name="zal" unicode="&#x630;" horiz-adv-x="535" arabic-form="isolated" 
d="M436 229q24 -28 34.5 -54.5t10.5 -52.5q0 -54 -38 -88t-106 -34h-288l-6 39h291q51 0 79 23.5t28 61.5q0 19 -9.5 41t-26.5 41l-197 223l28 27zM277 599h-64v52h64v-52z" />
    <glyph glyph-name="re" unicode="&#x631;" horiz-adv-x="212" arabic-form="isolated" 
d="M153 16q0 -61 -18.5 -109t-50.5 -81t-75.5 -50.5t-93.5 -17.5h-56l-5 38h53q54 0 93.5 18t65 48.5t38 70.5t12.5 83v266h37v-266v0z" />
    <glyph glyph-name="ze" unicode="&#x632;" horiz-adv-x="212" arabic-form="isolated" 
d="M153 16q0 -61 -18.5 -109t-50.5 -81t-75.5 -50.5t-93.5 -17.5h-56l-5 38h53q54 0 93.5 18t65 48.5t38 70.5t12.5 83v266h37v-266v0zM158 417h-64v52h64v-52z" />
    <glyph glyph-name="sin" unicode="&#x633;" horiz-adv-x="1126" arabic-form="isolated" 
d="M837 128q0 -26 8 -43t21.5 -27t30 -14.5t34.5 -4.5q44 0 71.5 24.5t27.5 64.5v154h37v-150q0 -61 -37.5 -96.5t-97.5 -35.5q-37 0 -68 14t-48 53q-21 -39 -55 -53t-71 -14q-36 0 -61.5 12t-39.5 33v-29q0 -51 -17 -98t-48.5 -82.5t-76.5 -56.5t-101 -21h-56
q-112 0 -174 69t-62 189v172h37v-171q0 -49 12.5 -89.5t38 -70t64.5 -45.5t91 -16h44q51 0 90 17.5t66 47.5t41 69t14 83v269h37v-158q0 -37 26.5 -61t74.5 -24q52 0 81 24.5t29 64.5v154h37v-154z" />
    <glyph glyph-name="shin" unicode="&#x634;" horiz-adv-x="1126" arabic-form="isolated" 
d="M837 128q0 -26 8 -43t21.5 -27t30 -14.5t34.5 -4.5q44 0 71.5 24.5t27.5 64.5v154h37v-150q0 -61 -37.5 -96.5t-97.5 -35.5q-37 0 -68 14t-48 53q-21 -39 -55 -53t-71 -14q-36 0 -61.5 12t-39.5 33v-29q0 -51 -17 -98t-48.5 -82.5t-76.5 -56.5t-101 -21h-56
q-112 0 -174 69t-62 189v172h37v-171q0 -49 12.5 -89.5t38 -70t64.5 -45.5t91 -16h44q51 0 90 17.5t66 47.5t41 69t14 83v269h37v-158q0 -37 26.5 -61t74.5 -24q52 0 81 24.5t29 64.5v154h37v-154zM852 522h-62v51h62v-51zM908 417h-60v51h60v-51zM794 417h-62v51h62v-51z
" />
    <glyph glyph-name="sad" unicode="&#x635;" horiz-adv-x="1204" arabic-form="isolated" 
d="M1112 182q0 34 -10.5 62.5t-29 48.5t-43 31.5t-51.5 11.5q-66 0 -134.5 -71.5t-152.5 -225.5h283q25 0 50 8t44.5 25t31.5 44.5t12 65.5zM655 43q50 92 93.5 155.5t82.5 102.5t75.5 56.5t72.5 17.5q37 0 68.5 -15.5t54.5 -41.5t35.5 -61.5t12.5 -74.5q0 -33 -10.5 -65.5
t-32.5 -58.5t-55 -42t-79 -16h-277q-39 0 -66 12t-41 34v-30q0 -51 -17 -98t-48.5 -82.5t-76.5 -56.5t-101 -21h-56q-112 0 -174 69t-62 189v172h37v-171q0 -49 12.5 -89.5t38 -70t64.5 -45.5t91 -16h44q51 0 90 17.5t66 47.5t41 69t14 83v269h37v-156q0 -30 18 -53t48 -30z
" />
    <glyph glyph-name="zad" unicode="&#x636;" horiz-adv-x="1204" arabic-form="isolated" 
d="M1112 182q0 34 -10.5 62.5t-29 48.5t-43 31.5t-51.5 11.5q-66 0 -134.5 -71.5t-152.5 -225.5h283q25 0 50 8t44.5 25t31.5 44.5t12 65.5zM655 43q50 92 93.5 155.5t82.5 102.5t75.5 56.5t72.5 17.5q37 0 68.5 -15.5t54.5 -41.5t35.5 -61.5t12.5 -74.5q0 -33 -10.5 -65.5
t-32.5 -58.5t-55 -42t-79 -16h-277q-39 0 -66 12t-41 34v-30q0 -51 -17 -98t-48.5 -82.5t-76.5 -56.5t-101 -21h-56q-112 0 -174 69t-62 189v172h37v-171q0 -49 12.5 -89.5t38 -70t64.5 -45.5t91 -16h44q51 0 90 17.5t66 47.5t41 69t14 83v269h37v-156q0 -30 18 -53t48 -30z
M945 479h-64v52h64v-52z" />
    <glyph glyph-name="ta" unicode="&#x637;" horiz-adv-x="696" arabic-form="isolated" 
d="M146 620h38v-326v-89.5t-1 -89.5q82 139 152.5 199.5t135.5 60.5q37 0 68.5 -15.5t54.5 -41.5t35.5 -61.5t12.5 -74.5q0 -33 -10.5 -65.5t-32.5 -58.5t-55 -42t-79 -16h-411l-5 39h97v581zM604 182q0 34 -10.5 62.5t-29 48.5t-43 31.5t-51.5 11.5q-66 0 -134.5 -71.5
t-153.5 -225.5h284q25 0 50 8t44.5 25t31.5 44.5t12 65.5z" />
    <glyph glyph-name="za" unicode="&#x638;" horiz-adv-x="696" arabic-form="isolated" 
d="M146 620h38v-326v-89.5t-1 -89.5q82 139 152.5 199.5t135.5 60.5q37 0 68.5 -15.5t54.5 -41.5t35.5 -61.5t12.5 -74.5q0 -33 -10.5 -65.5t-32.5 -58.5t-55 -42t-79 -16h-411l-5 39h97v581zM604 182q0 34 -10.5 62.5t-29 48.5t-43 31.5t-51.5 11.5q-66 0 -134.5 -71.5
t-153.5 -225.5h284q25 0 50 8t44.5 25t31.5 44.5t12 65.5zM499 504h-64v52h64v-52z" />
    <glyph glyph-name="ein" unicode="&#x639;" horiz-adv-x="525" arabic-form="isolated" 
d="M193 26q-24 18 -39 40t-24 44.5t-12.5 42.5t-3.5 35q0 35 12 66t34 53.5t52.5 35.5t68.5 13q33 0 64.5 -10t69.5 -35l-16 -30q-32 19 -61 27.5t-57 8.5q-29 0 -53 -10.5t-41 -28.5t-26.5 -41.5t-9.5 -48.5q0 -26 9 -52t24.5 -48t35.5 -35.5t42 -13.5h184l-6 -39h-185
q-39 0 -70.5 -14.5t-53 -38t-33.5 -53.5t-12 -61q0 -91 47 -135.5t156 -44.5h185l-6 -38h-185q-68 0 -113 17.5t-72 47t-38 69t-11 83.5q0 63 37.5 117t106.5 77z" />
    <glyph glyph-name="qein" unicode="&#x63a;" horiz-adv-x="525" arabic-form="isolated" 
d="M193 26q-24 18 -39 40t-24 44.5t-12.5 42.5t-3.5 35q0 35 12 66t34 53.5t52.5 35.5t68.5 13q33 0 64.5 -10t69.5 -35l-16 -30q-32 19 -61 27.5t-57 8.5q-29 0 -53 -10.5t-41 -28.5t-26.5 -41.5t-9.5 -48.5q0 -26 9 -52t24.5 -48t35.5 -35.5t42 -13.5h184l-6 -39h-185
q-39 0 -70.5 -14.5t-53 -38t-33.5 -53.5t-12 -61q0 -91 47 -135.5t156 -44.5h185l-6 -38h-185q-68 0 -113 17.5t-72 47t-38 69t-11 83.5q0 63 37.5 117t106.5 77zM307 494h-64v52h64v-52z" />
    <glyph glyph-name="fe" unicode="&#x641;" horiz-adv-x="861" arabic-form="isolated" 
d="M465 230q0 28 11 57.5t32.5 53.5t53.5 39t73 15q37 0 68 -10.5t53 -34t34 -60.5t12 -89v-40q0 -75 -46.5 -118t-146.5 -43h-396q-41 0 -70.5 12.5t-48 33.5t-27 49t-8.5 59v128h37v-120q0 -55 29 -89t96 -34h370q24 0 43.5 2t38.5 5q-72 22 -113.5 42.5t-62.5 42
t-26.5 45.5t-5.5 54zM502 232q0 -23 4.5 -42.5t25.5 -38.5t65 -39.5t124 -46.5q19 14 31.5 37.5t12.5 55.5v38q0 77 -32 118.5t-103 41.5q-29 0 -53 -10.5t-40.5 -28t-25.5 -40t-9 -45.5zM663 506h-64v52h64v-52z" />
    <glyph glyph-name="qaf" unicode="&#x642;" horiz-adv-x="712" arabic-form="isolated" 
d="M406 -204q48 0 86.5 16.5t65.5 44.5t42 65t17 78h-124q-51 0 -84.5 11t-52.5 31.5t-26.5 49t-7.5 64.5q0 37 11 71t32 59.5t52 41t72 15.5q33 0 62.5 -11t52 -34t36 -60t13.5 -89v-133q0 -51 -17 -98t-48 -82.5t-76 -56.5t-100 -21h-122q-112 0 -174 69t-62 189v172h37
v-171q0 -49 12.5 -89.5t38 -70t64.5 -45.5t91 -16h109zM360 157q0 -31 6.5 -53.5t23.5 -36.5t45.5 -21t73.5 -7h108v96q0 90 -35.5 130t-98.5 40q-58 0 -90.5 -41t-32.5 -107zM580 466h-60v51h60v-51zM466 466h-62v51h62v-51z" />
    <glyph glyph-name="kaf.arab" unicode="&#x643;" horiz-adv-x="775" arabic-form="isolated" 
d="M425 209v96q0 8 -6 15t-23 7h-125v108q0 47 27.5 73.5t78.5 26.5h42l5 -33h-47q-72 0 -72 -68v-73h107q26 0 36 -15t10 -33v-104h-33zM213 0q-41 0 -70.5 12.5t-48 33.5t-27 49t-8.5 59v128h37v-120q0 -55 29 -89t96 -34h344q45 0 72.5 24.5t27.5 64.5v492h37v-488
q0 -61 -38 -96.5t-98 -35.5h-353z" />
    <glyph glyph-name="lam" unicode="&#x644;" horiz-adv-x="663" arabic-form="isolated" 
d="M589 17q0 -52 -17 -99t-48.5 -82.5t-76.5 -56.5t-101 -21h-56q-112 0 -174 69t-62 189v172h37v-171q0 -49 12.5 -89.5t38 -70t64.5 -45.5t91 -16h44q51 0 90 17.5t66 47.5t41 69t14 83v607h37v-603z" />
    <glyph glyph-name="mim" unicode="&#x645;" horiz-adv-x="631" arabic-form="isolated" 
d="M406 0q-67 0 -108.5 36.5t-41.5 106.5v69q0 36 10 61.5t36 48.5h-55q-37 0 -65.5 -10.5t-47.5 -29.5t-28.5 -44t-9.5 -54v-426h-37v426q0 35 12.5 67t36.5 56.5t60 39t84 14.5h181q39 0 65.5 -11.5t43 -30t23.5 -41.5t7 -46v-88q0 -75 -45.5 -109.5t-120.5 -34.5zM412 39
q55 0 89 24t34 78v83q0 19 -6 37t-18 31.5t-30.5 21.5t-43.5 8h-46q-50 0 -74 -30.5t-24 -73.5v-72q0 -53 32 -80t87 -27z" />
    <glyph glyph-name="nun" unicode="&#x646;" horiz-adv-x="648" arabic-form="isolated" 
d="M589 17q0 -52 -17 -99t-48.5 -82.5t-76.5 -56.5t-101 -21h-56q-112 0 -174 69t-62 189v172h37v-171q0 -49 12.5 -89.5t38 -70t64.5 -45.5t91 -16h44q51 0 90 17.5t66 47.5t41 69t14 83v269h37v-265zM344 308h-64v52h64v-52z" />
    <glyph glyph-name="he" unicode="&#x647;" horiz-adv-x="460" arabic-form="isolated" 
d="M54 154q0 31 8.5 58.5t27 57t47.5 62.5t70 74l-47 47l27 28q62 -62 104 -107t67.5 -80t36.5 -65.5t11 -63.5q0 -35 -13.5 -65.5t-38 -52.5t-57.5 -34.5t-72 -12.5t-71 11.5t-54 32t-34 49t-12 61.5zM369 161q0 25 -7 48t-23.5 48.5t-43 54.5t-65.5 67
q-44 -43 -71.5 -75.5t-42.5 -58t-20 -46.5t-5 -42q0 -51 36 -84.5t99 -33.5q31 0 57 10t45 26.5t30 38.5t11 47z" />
    <glyph glyph-name="vav" unicode="&#x648;" horiz-adv-x="451" arabic-form="isolated" 
d="M148 -204q48 0 86 16.5t64 44.5t40 65t16 78h-124q-51 0 -84 11t-52 31.5t-26.5 49t-7.5 64.5q0 37 10.5 71t31.5 59.5t52 41t72 15.5q33 0 63 -11t53 -34t36.5 -60t13.5 -89v-133q0 -51 -16.5 -98t-47 -82.5t-75 -56.5t-100.5 -21h-108l-6 38h109zM97 157
q0 -31 6.5 -53.5t23.5 -36.5t46 -21t73 -7h108v96q0 90 -35.5 130t-98.5 40q-58 0 -90.5 -41t-32.5 -107z" />
    <glyph glyph-name="alef.maksura" unicode="&#x649;" horiz-adv-x="676" arabic-form="isolated" 
d="M367 -204q43 0 82.5 13.5t69.5 37t48 55.5t18 69q0 16 -3.5 30t-14 24.5t-28.5 17t-46 6.5h-176v159q0 75 43.5 121t118.5 46h115l5 -39h-125q-22 0 -43.5 -7.5t-38.5 -23t-27.5 -38.5t-10.5 -53v-127h146q37 0 61 -9.5t37.5 -24.5t18.5 -34.5t5 -39.5q0 -46 -20 -86
t-54 -70t-79 -47.5t-96 -17.5h-83q-112 0 -174 69t-62 189v172h37v-171q0 -49 12.5 -89.5t38 -70t64.5 -45.5t91 -16h70z" />
    <glyph glyph-name="ye.arab" unicode="&#x64a;" horiz-adv-x="676" arabic-form="isolated" 
d="M367 -204q43 0 82.5 13.5t69.5 37t48 55.5t18 69q0 16 -3.5 30t-14 24.5t-28.5 17t-46 6.5h-176v159q0 75 43.5 121t118.5 46h115l5 -39h-125q-22 0 -43.5 -7.5t-38.5 -23t-27.5 -38.5t-10.5 -53v-127h146q37 0 61 -9.5t37.5 -24.5t18.5 -34.5t5 -39.5q0 -46 -20 -86
t-54 -70t-79 -47.5t-96 -17.5h-83q-112 0 -174 69t-62 189v172h37v-171q0 -49 12.5 -89.5t38 -70t64.5 -45.5t91 -16h70zM402 -410h-56v51h56v-51zM284 -410h-58v51h58v-51z" />
    <glyph glyph-name="alef.vasla" unicode="&#x671;" horiz-adv-x="185" arabic-form="isolated" 
d="M73 465h38v-465h-38v465zM13 580q21 42 40.5 71t38 47t36 26t35.5 8q16 0 31 -7t26.5 -19t18 -28t6.5 -35q0 -15 -5 -31.5t-17 -30.5t-32 -23.5t-51 -9.5h-134l-19 18v101l26 5v-92zM139 575q32 0 56 16.5t24 51.5q0 23 -16.5 42t-42.5 19q-17 0 -33 -10t-31 -27.5
t-29.5 -41t-29.5 -50.5h102z" />
    <glyph glyph-name="pe" unicode="&#x67e;" horiz-adv-x="769" arabic-form="isolated" 
d="M208 0q-41 0 -70 12.5t-48 33.5t-27.5 49t-8.5 59v128h37v-120q0 -55 29 -89t97 -34h360q45 0 72.5 24.5t27.5 64.5v154h37v-152q0 -60 -38 -95t-96 -35h-372zM416 -275h-62v51h62v-51zM472 -170h-60v51h60v-51zM358 -170h-62v51h62v-51z" />
    <glyph glyph-name="che" unicode="&#x686;" horiz-adv-x="539" arabic-form="isolated" 
d="M443 219q-8 27 -18 48t-26 35.5t-39.5 22t-59.5 7.5h-213l6 39h210q25 0 51.5 -3t50.5 -19.5t45 -51t35 -96.5l-198 -116q-52 -31 -90 -59t-62.5 -56.5t-36.5 -58t-12 -62.5q0 -97 51.5 -146.5t160.5 -49.5h187l-6 -38h-186q-68 0 -115 18t-75.5 49t-41 72.5t-12.5 87.5
q0 38 11 72.5t35.5 66.5t64 64t96.5 66zM360.534 -229.658h-61.0684v50.2344h61.0684v-50.2344zM415.693 -126.234h-59.0986v50.2344h59.0986v-50.2344zM303.405 -126.234h-61.0693v50.2344h61.0693v-50.2344z" />
    <glyph glyph-name="re.bv.fina" unicode="&#x695;" horiz-adv-x="259" 
d="M152 16q0 -61 -18 -109t-50 -81t-75.5 -50.5t-93.5 -17.5h-56l-5 38h53q54 0 93.5 18t65 48.5t38 70.5t12.5 83v266h37v-158q0 -37 25.5 -61t69.5 -24h11q22 0 22 -19q0 -20 -22 -20h-11q-28 0 -53.5 10.5t-42.5 34.5v-29zM126 -284l24 -14l-96 -186h-22l-96 186l23 14
l84 -166z" />
    <glyph glyph-name="je" unicode="&#x698;" horiz-adv-x="212" arabic-form="isolated" 
d="M153 16q0 -61 -18.5 -109t-50.5 -81t-75.5 -50.5t-93.5 -17.5h-56l-5 38h53q54 0 93.5 18t65 48.5t38 70.5t12.5 83v266h37v-266v0zM147 522h-62v51h62v-51zM203 417h-60v51h60v-51zM89 417h-62v51h62v-51z" />
    <glyph glyph-name="veh" unicode="&#x6a4;" horiz-adv-x="856" arabic-form="isolated" 
d="M461 230q0 28 11 57.5t32.5 53.5t53 39t72.5 15q38 0 69 -10.5t52.5 -34t33.5 -60.5t12 -89v-40q0 -75 -46.5 -118t-146.5 -43h-396q-41 0 -70 12.5t-48 33.5t-27.5 49t-8.5 59v128h37v-120q0 -55 29 -89t97 -34h370q24 0 43 2t38 5q-72 22 -113.5 42.5t-62 42t-26 45.5
t-5.5 54zM498 232q0 -23 4 -42.5t25 -38.5t65 -39.5t124 -46.5q20 14 32 37.5t12 55.5v38q0 77 -32 118.5t-102 41.5q-30 0 -53.5 -10.5t-40 -28t-25.5 -40t-9 -45.5zM658 611h-62v51h62v-51zM714 506h-60v51h60v-51zM600 506h-62v51h62v-51z" />
    <glyph glyph-name="kaf" unicode="&#x6a9;" horiz-adv-x="800" arabic-form="isolated" 
d="M595 39q57 0 79.5 23t22.5 58q0 20 -7 45.5t-40 58.5l-236 235v39l332 135l12 -37l-305 -124l204 -204q25 -25 40.5 -44.5t24 -37t11.5 -33.5t3 -35q0 -60 -38.5 -89t-100.5 -29h-384q-41 0 -70.5 12.5t-48 33.5t-27 49t-8.5 59v128h37v-120q0 -55 29 -89t96 -34h374z
" />
    <glyph glyph-name="gaf" unicode="&#x6af;" horiz-adv-x="800" arabic-form="isolated" 
d="M413 624l299 126l11 -32l-309 -129zM595 39q57 0 79.5 23t22.5 58q0 20 -7 45.5t-40 58.5l-236 235v39l332 135l12 -37l-305 -124l204 -204q25 -25 40.5 -44.5t24 -37t11.5 -33.5t3 -35q0 -60 -38.5 -89t-100.5 -29h-384q-41 0 -70.5 12.5t-48 33.5t-27 49t-8.5 59v128
h37v-120q0 -55 29 -89t96 -34h374z" />
    <glyph glyph-name="lam.tv.init" unicode="&#x6b5;" horiz-adv-x="237" 
d="M27 39q44 0 71.5 24.5t27.5 64.5v324h37v-320q0 -61 -37 -96.5t-98 -35.5h-28q-13 0 -17.5 5t-4.5 13q0 10 4.5 15.5t17.5 5.5h27zM225 707l24 -14l-96 -186h-22l-96 186l23 14l84 -166z" />
    <glyph glyph-name="lam.tvmedi" unicode="&#x6b5;" horiz-adv-x="271" 
d="M27 39q48 0 73.5 24.5t25.5 64.5v324h37v-324q0 -26 8.5 -43t22 -27t30.5 -14.5t33 -4.5h14q13 0 17.5 -5.5t4.5 -13.5q0 -10 -4.5 -15t-17.5 -5h-14q-35 0 -66.5 14t-48.5 53q-20 -39 -51.5 -53t-63.5 -14h-27q-13 0 -17.5 5t-4.5 13q0 10 4.5 15.5t17.5 5.5h27z
M225 707l24 -14l-96 -186h-22l-96 186l23 14l84 -166z" />
    <glyph glyph-name="lam.tv.fina" unicode="&#x6b5;" horiz-adv-x="695" 
d="M684 0q-27 0 -53 10.5t-42 34.5v-28q0 -52 -17 -99t-48.5 -82.5t-76.5 -56.5t-101 -21h-56q-112 0 -174 69t-62 189v172h37v-171q0 -49 12.5 -89.5t38 -70t64.5 -45.5t91 -16h44q51 0 90 17.5t66 47.5t41 69t14 83v607h37v-496q0 -37 26 -61t69 -24h11q23 0 23 -19
q0 -20 -23 -20h-11zM429 617l24 -14l-96 -186h-22l-96 186l23 14l84 -166z" />
    <glyph glyph-name="he.thmz" unicode="&#x6c0;" horiz-adv-x="460" arabic-form="isolated" 
d="M171 581q-42 0 -60 20.5t-18 46.5q0 9 2 18.5t7 22t15 30t26 42.5h116l-5 -33h-95q-18 -28 -26 -44.5t-8 -30.5t10.5 -26.5t41.5 -12.5h199l-3 -33h-202zM54 154q0 31 8.5 58.5t27 57t47.5 62.5t70 74l-47 47l27 28q62 -62 104 -107t67.5 -80t36.5 -65.5t11 -63.5
q0 -35 -13.5 -65.5t-38 -52.5t-57.5 -34.5t-72 -12.5t-71 11.5t-54 32t-34 49t-12 61.5zM369 161q0 25 -7 48t-23.5 48.5t-43 54.5t-65.5 67q-44 -43 -71.5 -75.5t-42.5 -58t-20 -46.5t-5 -42q0 -51 36 -84.5t99 -33.5q31 0 57 10t45 26.5t30 38.5t11 47z" />
    <glyph glyph-name="he.thmz.goal.fina" unicode="&#x6c2;" horiz-adv-x="502" 
d="M220 80q62 0 100.5 24.5t38.5 60.5v189h-134q-60 0 -95 -42.5t-35 -111.5q0 -35 8.5 -58t24.5 -37t39 -19.5t53 -5.5zM396 157q0 -26 4.5 -47.5t15 -37t29 -24.5t45.5 -9h12q12 0 16.5 -5.5t4.5 -13.5q0 -10 -4.5 -15t-16.5 -5h-12q-43 0 -76.5 20.5t-47.5 78.5
q-12 -17 -31 -28t-40.5 -17t-43 -8.5t-39.5 -2.5q-75 0 -114 36t-39 115q0 37 10.5 72.5t31.5 63.5t53 45t75 17h130v71h37v-306zM387 641l-185 -94l-13 26l75 37q-19 3 -32.5 11.5t-22 21t-12.5 27t-4 28.5q0 42 26 68t68 26h47l-5 -28h-36q-35 0 -53.5 -20t-18.5 -47
q0 -31 20.5 -49t46.5 -18q16 0 38 11l50 25z" />
    <glyph glyph-name="vav.tv" unicode="&#x6c6;" horiz-adv-x="451" arabic-form="isolated" 
d="M148 -204q48 0 86 16.5t64 44.5t40 65t16 78h-124q-51 0 -84 11t-52 31.5t-26.5 49t-7.5 64.5q0 37 10.5 71t31.5 59.5t52 41t72 15.5q33 0 63 -11t53 -34t36.5 -60t13.5 -89v-133q0 -51 -16.5 -98t-47 -82.5t-75 -56.5t-100.5 -21h-108l-6 38h109zM97 157
q0 -31 6.5 -53.5t23.5 -36.5t46 -21t73 -7h108v96q0 90 -35.5 130t-98.5 40q-58 0 -90.5 -41t-32.5 -107zM313 618l24 -14l-96 -186h-22l-96 186l23 14l84 -166z" />
    <glyph glyph-name="vav.t2p.fina" unicode="&#x6ca;" horiz-adv-x="498" 
d="M148 -204q48 0 86 16.5t64 44.5t40 65t16 78h-124q-51 0 -84 11t-52 31.5t-26.5 49t-7.5 64.5q0 37 10.5 71t31.5 59.5t52 41t72 15.5q33 0 63 -11t53 -34t36.5 -60t13.5 -89v-110h106q12 0 16.5 -5.5t4.5 -13.5q0 -10 -4.5 -15t-16.5 -5h-108q-3 -49 -20 -93t-47.5 -77
t-73 -52.5t-96.5 -19.5h-108l-6 38h109zM97 157q0 -31 6.5 -53.5t23.5 -36.5t46 -21t73 -7h108v96q0 90 -35.5 130t-98.5 40q-58 0 -90.5 -41t-32.5 -107zM317 466h-60v51h60v-51zM203 466h-62v51h62v-51z" />
    <glyph glyph-name="ye" unicode="&#x6cc;" horiz-adv-x="676" arabic-form="isolated" 
d="M367 -204q43 0 82.5 13.5t69.5 37t48 55.5t18 69q0 16 -3.5 30t-14 24.5t-28.5 17t-46 6.5h-176v159q0 75 43.5 121t118.5 46h115l5 -39h-125q-22 0 -43.5 -7.5t-38.5 -23t-27.5 -38.5t-10.5 -53v-127h146q37 0 61 -9.5t37.5 -24.5t18.5 -34.5t5 -39.5q0 -46 -20 -86
t-54 -70t-79 -47.5t-96 -17.5h-83q-112 0 -174 69t-62 189v172h37v-171q0 -49 12.5 -89.5t38 -70t64.5 -45.5t91 -16h70z" />
    <glyph glyph-name="ye.tv.init" unicode="&#x6ce;" horiz-adv-x="284" 
d="M89 39q43 0 71.5 24.5t28.5 64.5v154h36v-150q0 -61 -37.5 -96.5t-97.5 -35.5h-90q-13 0 -17.5 5t-4.5 13q0 10 4.5 15.5t17.5 5.5h89zM189 -170h-56v51h56v-51zM71 -170h-58v51h58v-51zM196 571l24 -14l-96 -186h-22l-96 186l23 14l84 -166z" />
    <glyph glyph-name="ye.tv.medi" unicode="&#x6ce;" horiz-adv-x="345" 
d="M80 39q48 0 74 24.5t26 64.5v154h38v-154q0 -26 8.5 -43t22 -27t30 -14.5t32.5 -4.5h34q23 0 23 -19q0 -20 -23 -20h-34q-36 0 -67 14t-48 53q-21 -39 -51.5 -53t-64.5 -14h-80q-13 0 -17.5 5t-4.5 13q0 10 4.5 15.5t17.5 5.5h80zM252 -170h-56v51h56v-51zM134 -170h-58
v51h58v-51zM279 571l24 -14l-96 -186h-22l-96 186l23 14l84 -166z" />
    <glyph glyph-name="ye.tv.fina" unicode="&#x6ce;" horiz-adv-x="707" 
d="M379 -204q56 0 95 13t64 33t36 45t11 49q0 28 -13.5 46t-45.5 18h-186l6 39h361q22 0 22 -19q0 -20 -22 -20h-107q12 -12 17 -28t5 -34q0 -27 -11.5 -58.5t-39 -58.5t-73 -45t-112.5 -18h-96q-112 0 -174 69t-62 189v172h37v-171q0 -49 12.5 -89.5t38 -70t64.5 -45.5
t91 -16h82zM380 389l24 -14l-96 -186h-22l-96 186l23 14l84 -166z" />
    <glyph glyph-name="ae.fina" unicode="&#x6d5;" horiz-adv-x="502" 
d="M220 80q62 0 100.5 24.5t38.5 60.5v189h-134q-60 0 -95 -42.5t-35 -111.5q0 -35 8.5 -58t24.5 -37t39 -19.5t53 -5.5zM396 157q0 -26 4.5 -47.5t15 -37t29 -24.5t45.5 -9h12q12 0 16.5 -5.5t4.5 -13.5q0 -10 -4.5 -15t-16.5 -5h-12q-43 0 -76.5 20.5t-47.5 78.5
q-12 -17 -31 -28t-40.5 -17t-43 -8.5t-39.5 -2.5q-75 0 -114 36t-39 115q0 37 10.5 72.5t31.5 63.5t53 45t75 17h130v71h37v-306z" />
    <glyph glyph-name="alef.vasla.fina" unicode="&#x671;" horiz-adv-x="218" arabic-form="final" 
d="M202 0q-25 0 -48.5 7.5t-41.5 25.5t-28.5 47.5t-10.5 73.5v311h38v-308q0 -50 21.5 -84t72.5 -34h13q21 0 21 -19q0 -20 -21 -20h-16zM13 580q21 42 40.5 71t38 47t36 26t35.5 8q16 0 31 -7t26.5 -19t18 -28t6.5 -35q0 -15 -5 -31.5t-17 -30.5t-32 -23.5t-51 -9.5h-134
l-19 18v101l26 5v-92zM139 575q32 0 56 16.5t24 51.5q0 23 -16.5 42t-42.5 19q-17 0 -33 -10t-31 -27.5t-29.5 -41t-29.5 -50.5h102z" />
    <glyph glyph-name="pe.fina" unicode="&#x67e;" horiz-adv-x="822" arabic-form="final" 
d="M577 39q48 0 74 24.5t26 64.5v154h37v-154q0 -26 8.5 -43t22 -27t30.5 -14.5t33 -4.5h14q13 0 17.5 -5.5t4.5 -13.5q0 -10 -4.5 -15t-17.5 -5h-14q-35 0 -66 14t-49 53q-21 -39 -51.5 -53t-64.5 -14h-369q-41 0 -70 12.5t-48 33.5t-27.5 49t-8.5 59v128h37v-120
q0 -55 29 -89t97 -34h360zM416 -275h-62v51h62v-51zM472 -170h-60v51h60v-51zM358 -170h-62v51h62v-51z" />
    <glyph glyph-name="pe.init" unicode="&#x67e;" horiz-adv-x="284" arabic-form="initial" 
d="M89 39q43 0 71.5 24.5t28.5 64.5v154h36v-150q0 -61 -37.5 -96.5t-97.5 -35.5h-90q-13 0 -17.5 5t-4.5 13q0 10 4.5 15.5t17.5 5.5h89zM139 -275h-62v51h62v-51zM195 -170h-60v51h60v-51zM81 -170h-62v51h62v-51z" />
    <glyph glyph-name="pe.medi" unicode="&#x67e;" horiz-adv-x="345" arabic-form="medial" 
d="M80 39q48 0 74 24.5t26 64.5v154h38v-154q0 -26 8.5 -43t22 -27t30 -14.5t32.5 -4.5h34q23 0 23 -19q0 -20 -23 -20h-34q-36 0 -67 14t-48 53q-21 -39 -51.5 -53t-64.5 -14h-80q-13 0 -17.5 5t-4.5 13q0 10 4.5 15.5t17.5 5.5h80zM189 -275h-62v51h62v-51zM245 -170h-60
v51h60v-51zM131 -170h-62v51h62v-51z" />
    <glyph glyph-name="veh.fina" unicode="&#x6a4;" horiz-adv-x="894" arabic-form="final" 
d="M626 345q-31 0 -55.5 -10.5t-42 -29t-27 -43t-9.5 -51.5q0 -32 14.5 -58t36 -46.5t46.5 -34.5t47 -22q16 8 37.5 22t41 34t32.5 45t13 56q0 61 -36 99.5t-98 38.5zM632 384q41 0 72 -14.5t51.5 -37.5t31 -52.5t10.5 -60.5q0 -53 -28 -99t-90 -81h215q22 0 22 -19
q0 -20 -22 -20h-119q-46 0 -82 1.5t-56 10.5q-15 -5 -35 -7t-42 -3.5t-42 -1.5h-35h-275q-41 0 -70 12.5t-48 33.5t-27.5 49t-8.5 59v128h37v-120q0 -55 29 -89t97 -34h371q-59 26 -95.5 71t-36.5 103q0 33 12 64t34.5 54.5t55.5 38t74 14.5zM658 599h-62v51h62v-51z
M714 494h-60v51h60v-51zM600 494h-62v51h62v-51z" />
    <glyph glyph-name="veh.init" unicode="&#x6a4;" horiz-adv-x="487" arabic-form="initial" 
d="M227 39q42 0 76 7q-72 22 -113.5 42.5t-62 42t-26 45.5t-5.5 54q0 28 11 57.5t32.5 53.5t53.5 39t73 15q37 0 68 -10.5t53 -34t34 -60.5t12 -89v-40q0 -75 -46.5 -118t-146.5 -43h-240q-13 0 -17.5 5t-4.5 13q0 10 4.5 15.5t17.5 5.5h227zM261 356q-29 0 -52.5 -10.5
t-40.5 -28t-26 -40t-9 -45.5t4 -42.5t25 -38.5t65 -39.5t124 -46.5q20 14 32 37.5t12 55.5v38q0 77 -31.5 118.5t-102.5 41.5zM297 611h-62v51h62v-51zM353 506h-60v51h60v-51zM239 506h-62v51h62v-51z" />
    <glyph glyph-name="veh.medi" unicode="&#x6a4;" horiz-adv-x="534" arabic-form="medial" 
d="M229 39q-59 26 -96 71t-37 103q0 33 12 64t35 54.5t56 38t74 14.5t72 -14.5t51.5 -37.5t31 -52.5t10.5 -60.5q0 -53 -28 -99t-90 -81h214q22 0 22 -19q0 -20 -22 -20h-118q-45 0 -81 1.5t-57 10.5q-14 -5 -34.5 -7t-42 -3.5t-42 -1.5h-34.5h-125q-13 0 -17.5 5t-4.5 13
q0 10 4.5 15.5t17.5 5.5h229zM267 345q-31 0 -55.5 -10.5t-42 -29t-26.5 -43t-9 -51.5q0 -32 14 -58t35.5 -46.5t46.5 -34.5t47 -22q16 8 37.5 22t40.5 34t32.5 45t13.5 56q0 61 -35.5 99.5t-98.5 38.5zM308 599h-62v51h62v-51zM364 494h-60v51h60v-51zM250 494h-62v51h62
v-51z" />
    <glyph glyph-name="che.fina" unicode="&#x686;" horiz-adv-x="566" arabic-form="final" 
d="M443 219q-8 27 -18 48t-26 35.5t-39.5 22t-59.5 7.5h-213l6 39h210q25 0 51.5 -3t50.5 -19.5t45 -51t35 -96.5l-89 -53q10 -31 21 -52t24.5 -33.5t30.5 -18t40 -5.5h54q13 0 17.5 -5.5t4.5 -13.5q0 -10 -4.5 -15t-17.5 -5h-59q-33 0 -54.5 10t-37 27.5t-26 41.5t-20.5 53
l-82 -47q-52 -31 -90 -59t-62.5 -56.5t-36.5 -58t-12 -62.5q0 -97 51.5 -146.5t160.5 -49.5h187l-6 -38h-186q-68 0 -115 18t-75.5 49t-41 72.5t-12.5 87.5q0 38 11 72.5t35.5 66.5t64 64t96.5 66zM336.069 -237.315h-60.1387v49.4688h60.1387v-49.4688zM390.388 -135.469
h-58.1982v49.4688h58.1982v-49.4688zM279.811 -135.469h-60.1377v49.4688h60.1377v-49.4688z" />
    <glyph glyph-name="che.init" unicode="&#x686;" horiz-adv-x="572" arabic-form="initial" 
d="M291 60q-24 -15 -47.5 -26t-50.5 -18.5t-59.5 -11.5t-75.5 -4h-58q-13 0 -17.5 5t-4.5 13q0 10 4.5 15.5t17.5 5.5h58q39 0 69 3.5t55.5 10t48 17t45.5 24.5l201 117q-9 27 -20 49t-27.5 38t-41 25t-59.5 9h-233l6 39h229q25 0 52.5 -4.5t52.5 -22.5t46.5 -53t35.5 -96z
M315 -275h-62v51h62v-51zM371 -170h-60v51h60v-51zM257 -170h-62v51h62v-51z" />
    <glyph glyph-name="che.medi" unicode="&#x686;" horiz-adv-x="614" arabic-form="medial" 
d="M428 142q19 -56 43.5 -79.5t68.5 -23.5h74q13 0 17.5 -5.5t4.5 -13.5q0 -10 -4.5 -15t-17.5 -5h-79q-32 0 -53.5 9.5t-37 26.5t-26 39.5t-19.5 49.5l-108 -65q-24 -14 -47.5 -25.5t-50.5 -19t-59.5 -11.5t-75.5 -4h-58q-13 0 -17.5 5t-4.5 13q0 10 4.5 15.5t17.5 5.5h58
q39 0 69 3.5t55.5 10t48 17t45.5 24.5l201 117q-9 27 -20 49t-27.5 38t-41 25t-59.5 9h-233l6 39h229q25 0 52.5 -4.5t52.5 -22.5t46.5 -53t35.5 -96zM315 -275h-62v51h62v-51zM371 -170h-60v51h60v-51zM257 -170h-62v51h62v-51z" />
    <glyph glyph-name="je.fina" unicode="&#x698;" horiz-adv-x="259" arabic-form="final" 
d="M152 16q0 -61 -18 -109t-50 -81t-75.5 -50.5t-93.5 -17.5h-56l-5 38h53q54 0 93.5 18t65 48.5t38 70.5t12.5 83v266h37v-158q0 -37 25.5 -61t69.5 -24h11q22 0 22 -19q0 -20 -22 -20h-11q-28 0 -53.5 10.5t-42.5 34.5v-29zM147 522h-62v51h62v-51zM203 417h-60v51h60v-51
zM89 417h-62v51h62v-51z" />
    <glyph glyph-name="kaf.fina" unicode="&#x6a9;" horiz-adv-x="948" arabic-form="final" 
d="M414 459v39l332 135l12 -37l-305 -124l204 -204q55 -55 94 -93.5t66.5 -64t45.5 -39.5t32 -21.5t26 -9t27 -1.5q13 0 17.5 -5.5t4.5 -13.5q0 -10 -4.5 -15t-17.5 -5q-27 0 -48 7t-44 23.5t-52.5 44.5t-73.5 71q7 -38 -0.5 -65.5t-26 -45.5t-46 -26.5t-60.5 -8.5h-384
q-41 0 -70.5 12.5t-48 33.5t-27 49t-8.5 59v128h37v-120q0 -56 29 -89.5t96 -33.5h374q56 0 79 23t23 58q0 20 -7 45.5t-40 58.5z" />
    <glyph glyph-name="kaf.init" unicode="&#x6a9;" horiz-adv-x="481" arabic-form="initial" 
d="M276 39q57 0 79.5 23t22.5 58q0 20 -7 45.5t-40 58.5l-236 235v39l332 135l12 -37l-305 -124l205 -204q25 -25 40 -44.5t23 -36.5t11 -33.5t3 -35.5q0 -60 -38 -89t-101 -29h-277q-13 0 -17.5 5t-4.5 13q0 10 4.5 15.5t17.5 5.5h276z" />
    <glyph glyph-name="kaf.medi" unicode="&#x6a9;" horiz-adv-x="628" arabic-form="medial" 
d="M276 39q57 0 79.5 23t22.5 58q0 20 -7 45.5t-40 58.5l-236 235v39l332 135l12 -37l-305 -124l205 -204l93.5 -93.5t66 -64t45.5 -39.5t32 -21.5t25.5 -9t26.5 -1.5q13 0 17.5 -5.5t4.5 -13.5q0 -10 -4.5 -15t-17.5 -5q-27 0 -47.5 7t-43.5 23.5t-52.5 44.5t-73.5 71
q7 -38 -0.5 -65.5t-26.5 -45.5t-46.5 -26.5t-60.5 -8.5h-277q-13 0 -17.5 5t-4.5 13q0 10 4.5 15.5t17.5 5.5h276z" />
    <glyph glyph-name="gaf.fina" unicode="&#x6af;" horiz-adv-x="948" arabic-form="final" 
d="M413 624l299 126l11 -32l-309 -129zM414 459v39l332 135l12 -37l-305 -124l204 -204q55 -55 94 -93.5t66.5 -64t45.5 -39.5t32 -21.5t26 -9t27 -1.5q13 0 17.5 -5.5t4.5 -13.5q0 -10 -4.5 -15t-17.5 -5q-27 0 -48 7t-44 23.5t-52.5 44.5t-73.5 71q7 -38 -0.5 -65.5
t-26 -45.5t-46 -26.5t-60.5 -8.5h-384q-41 0 -70.5 12.5t-48 33.5t-27 49t-8.5 59v128h37v-120q0 -56 29 -89.5t96 -33.5h374q56 0 79 23t23 58q0 20 -7 45.5t-40 58.5z" />
    <glyph glyph-name="gaf.init" unicode="&#x6af;" horiz-adv-x="481" arabic-form="initial" 
d="M95 624l299 126l11 -32l-310 -129v35zM276 39q57 0 79.5 23t22.5 58q0 20 -7 45.5t-40 58.5l-236 235v39l332 135l12 -37l-305 -124l205 -204q25 -25 40 -44.5t23 -36.5t11 -33.5t3 -35.5q0 -60 -38 -89t-101 -29h-277q-13 0 -17.5 5t-4.5 13q0 10 4.5 15.5t17.5 5.5h276
z" />
    <glyph glyph-name="gaf.medi" unicode="&#x6af;" horiz-adv-x="628" arabic-form="medial" 
d="M95 624l299 126l11 -32l-310 -129v35zM276 39q57 0 79.5 23t22.5 58q0 20 -7 45.5t-40 58.5l-236 235v39l332 135l12 -37l-305 -124l205 -204l93.5 -93.5t66 -64t45.5 -39.5t32 -21.5t25.5 -9t26.5 -1.5q13 0 17.5 -5.5t4.5 -13.5q0 -10 -4.5 -15t-17.5 -5q-27 0 -47.5 7
t-43.5 23.5t-52.5 44.5t-73.5 71q7 -38 -0.5 -65.5t-26.5 -45.5t-46.5 -26.5t-60.5 -8.5h-277q-13 0 -17.5 5t-4.5 13q0 10 4.5 15.5t17.5 5.5h276z" />
    <glyph glyph-name="he.thmz.fina" unicode="&#x6c0;" horiz-adv-x="502" arabic-form="final" 
d="M183 519q-42 0 -60 20.5t-18 46.5q0 9 2 18.5t7 22t15 30t26 42.5h117l-6 -34h-94q-19 -27 -26.5 -43.5t-7.5 -29.5q0 -14 9.5 -26.5t41.5 -12.5h200l-3 -34h-203zM220 80q62 0 100.5 24.5t38.5 60.5v189h-134q-60 0 -95 -42.5t-35 -111.5q0 -35 8.5 -58t24.5 -37
t39 -19.5t53 -5.5zM396 157q0 -26 4.5 -47.5t15 -37t29 -24.5t45.5 -9h12q12 0 16.5 -5.5t4.5 -13.5q0 -10 -4.5 -15t-16.5 -5h-12q-43 0 -76.5 20.5t-47.5 78.5q-12 -17 -31 -28t-40.5 -17t-43 -8.5t-39.5 -2.5q-75 0 -114 36t-39 115q0 37 10.5 72.5t31.5 63.5t53 45
t75 17h167v-235z" />
    <glyph glyph-name="he.dochashmi.fina" unicode="&#x6be;" horiz-adv-x="628" arabic-form="final" 
d="M465 209q0 54 -27.5 89t-85.5 35q-59 0 -91.5 -44t-32.5 -122v-247q0 -35 6.5 -57.5t18.5 -36.5t28 -21t34 -9l103 138q27 37 51 58t48.5 31.5t51 13t59.5 2.5q22 0 22 -19q0 -20 -22 -20q-34 0 -58.5 -2.5t-46.5 -12t-43 -30t-48 -56.5l-104 -141q-28 0 -52.5 8t-43 27
t-29.5 50t-11 76v248q0 35 8 71t26.5 65.5t49.5 48.5t77 19q37 0 65 -12t46.5 -32.5t28 -48.5t9.5 -61q0 -58 -38 -107t-101 -92.5t-145.5 -82.5t-171.5 -76l-14 36q89 37 167.5 74.5t137.5 76t93.5 79t34.5 84.5z" />
    <glyph glyph-name="he.dochashmi.init" unicode="&#x6be;" horiz-adv-x="723" arabic-form="initial" 
d="M266 336q-30 0 -55 -11t-42 -29.5t-26.5 -43t-9.5 -51.5q0 -32 14 -56.5t35.5 -43t46.5 -31t47 -21.5q16 9 38 21.5t41 30.5t32.5 41.5t13.5 54.5q0 61 -36 100t-99 39zM0 0q-13 0 -17.5 5t-4.5 13q0 10 4.5 15.5t17.5 5.5h229q-59 25 -96 65.5t-37 99.5q0 33 12 63.5
t34.5 54.5t55.5 38t74 14t72 -14.5t51.5 -37.5t31 -52.5t10.5 -60.5q0 -52 -28 -93.5t-90 -76.5h205q49 0 77.5 23.5t28.5 61.5q0 19 -8 40t-28 42l-193 215l29 27l194 -218q25 -29 35 -55.5t10 -52.5q0 -54 -38 -88t-106 -34h-110q-45 0 -81 1.5t-57 10.5q-14 -5 -34.5 -7
t-42 -3.5t-42 -1.5h-34.5h-124z" />
    <glyph glyph-name="he.dochashmi.medi" unicode="&#x6be;" horiz-adv-x="542" arabic-form="medial" 
d="M106 39v128q0 35 8 71t26.5 65.5t49 48.5t76.5 19q37 0 65.5 -12t47 -32.5t28 -48.5t9.5 -61q0 -44 -21 -83.5t-57.5 -68.5t-87 -46.5t-108.5 -18.5v-80q0 -35 6.5 -57.5t18.5 -36.5t28 -21t34 -9l103 138q28 37 52 58t48 31.5t50.5 13t59.5 2.5q13 0 17.5 -5.5
t4.5 -13.5q0 -10 -4.5 -15t-17.5 -5q-34 0 -58.5 -2.5t-46.5 -12t-43 -30t-48 -56.5l-103 -141q-28 0 -53 8t-43.5 27t-29.5 50t-11 76v81h-106q-13 0 -17.5 5t-4.5 13q0 10 4.5 15.5t17.5 5.5h106zM142 38q58 0 102.5 15.5t74.5 39.5t45.5 54.5t15.5 61.5q0 54 -28 89
t-86 35t-91 -44t-33 -122v-129z" />
    <glyph glyph-name="vav.tv.fina" unicode="&#x6c6;" horiz-adv-x="498" arabic-form="final" 
d="M148 -204q48 0 86 16.5t64 44.5t40 65t16 78h-124q-51 0 -84 11t-52 31.5t-26.5 49t-7.5 64.5q0 37 10.5 71t31.5 59.5t52 41t72 15.5q33 0 63 -11t53 -34t36.5 -60t13.5 -89v-110h106q12 0 16.5 -5.5t4.5 -13.5q0 -10 -4.5 -15t-16.5 -5h-108q-3 -49 -20 -93t-47.5 -77
t-73 -52.5t-96.5 -19.5h-108l-6 38h109zM97 157q0 -31 6.5 -53.5t23.5 -36.5t46 -21t73 -7h108v96q0 90 -35.5 130t-98.5 40q-58 0 -90.5 -41t-32.5 -107zM313 618l24 -14l-96 -186h-22l-96 186l23 14l84 -166z" />
    <glyph glyph-name="alef.maksura.init" unicode="&#x649;" horiz-adv-x="284" arabic-form="initial" 
d="M89 39q43 0 71.5 24.5t28.5 64.5v154h36v-150q0 -61 -37.5 -96.5t-97.5 -35.5h-90q-13 0 -17.5 5t-4.5 13q0 10 4.5 15.5t17.5 5.5h89z" />
    <glyph glyph-name="alef.maksura.medi" unicode="&#x649;" horiz-adv-x="345" arabic-form="medial" 
d="M80 39q48 0 74 24.5t26 64.5v154h38v-154q0 -26 8.5 -43t22 -27t30 -14.5t32.5 -4.5h34q23 0 23 -19q0 -20 -23 -20h-34q-36 0 -67 14t-48 53q-21 -39 -51.5 -53t-64.5 -14h-80q-13 0 -17.5 5t-4.5 13q0 10 4.5 15.5t17.5 5.5h80z" />
    <glyph glyph-name="ye.fina" unicode="&#x6cc;" horiz-adv-x="707" arabic-form="final" 
d="M379 -204q56 0 95 13t64 33t36 45t11 49q0 28 -13.5 46t-45.5 18h-186l6 39h361q22 0 22 -19q0 -20 -22 -20h-107q12 -12 17 -28t5 -34q0 -27 -11.5 -58.5t-39 -58.5t-73 -45t-112.5 -18h-96q-112 0 -174 69t-62 189v172h37v-171q0 -49 12.5 -89.5t38 -70t64.5 -45.5
t91 -16h82z" />
    <glyph glyph-name="ye.init" unicode="&#x6cc;" horiz-adv-x="284" arabic-form="initial" 
d="M89 39q43 0 71.5 24.5t28.5 64.5v154h36v-150q0 -61 -37.5 -96.5t-97.5 -35.5h-90q-13 0 -17.5 5t-4.5 13q0 10 4.5 15.5t17.5 5.5h89zM189 -170h-56v51h56v-51zM71 -170h-58v51h58v-51z" />
    <glyph glyph-name="ye.medi" unicode="&#x6cc;" horiz-adv-x="345" arabic-form="medial" 
d="M80 39q48 0 74 24.5t26 64.5v154h38v-154q0 -26 8.5 -43t22 -27t30 -14.5t32.5 -4.5h34q23 0 23 -19q0 -20 -23 -20h-34q-36 0 -67 14t-48 53q-21 -39 -51.5 -53t-64.5 -14h-80q-13 0 -17.5 5t-4.5 13q0 10 4.5 15.5t17.5 5.5h80zM252 -170h-56v51h56v-51zM134 -170h-58
v51h58v-51z" />
    <glyph glyph-name=".shdd.on" unicode="&#xfc5e;" arabic-form="isolated" 
d="M12 307q-35 19 -49 44.5t-14 48.5q0 19 7 36.5t20 31t31 22t39 8.5q42 0 68.5 -27.5t26.5 -67.5q0 -32 -20 -59.5t-74 -50.5l-152 -64l-11 25v95q0 22 -19 22h-45v27h50q17 0 28 -9.5t11 -35.5v-88zM-24 401q0 -26 18 -48t47 -33q27 11 50 30t23 49q0 27 -17.5 50
t-50.5 23q-18 0 -31 -6.5t-22 -17t-13 -23t-4 -24.5zM0 12q-15 -12 -29 -12h-26q-13 0 -29.5 4t-31.5 16.5t-25 36t-10 62.5v63h28v-77q0 -44 20 -61t50 -17h39v155h28v-155h39q30 0 50 17t20 61v77h27v-63q0 -39 -10 -62.5t-24.5 -36t-31 -16.5t-29.5 -4h-26q-9 0 -15 2.5
t-14 9.5z" />
    <glyph glyph-name=".shdd.en" unicode="&#xfc5f;" arabic-form="isolated" 
d="M0 332q-15 -12 -29 -12h-26q-13 0 -29.5 4t-31.5 16.5t-25 36t-10 62.5v63h28v-77q0 -44 20 -61t50 -17h39v155h28v-155h39q30 0 50 17t20 61v77h27v-63q0 -39 -10 -62.5t-24.5 -36t-31 -16.5t-29.5 -4h-26q-9 0 -15 2.5t-14 9.5zM107 121l11 -26l-225 -95l-11 26z
M107 242l11 -26l-225 -95l-11 26z" />
    <glyph glyph-name=".shdd.a" unicode="&#xfc60;" arabic-form="isolated" 
d="M107 350l11 -26l-225 -95l-11 26zM0 12q-15 -12 -29 -12h-26q-13 0 -29.5 4t-31.5 16.5t-25 36t-10 62.5v63h28v-77q0 -44 20 -61t50 -17h39v155h28v-155h39q30 0 50 17t20 61v77h27v-63q0 -39 -10 -62.5t-24.5 -36t-31 -16.5t-29.5 -4h-26q-9 0 -15 2.5t-14 9.5z" />
    <glyph glyph-name=".shdd.o" unicode="&#xfc61;" arabic-form="isolated" 
d="M-129 256l128 52q-35 19 -48.5 44.5t-13.5 48.5q0 19 7 36.5t19.5 31t30.5 22t39 8.5q42 0 68.5 -27.5t26.5 -67.5q0 -32 -20 -59.5t-74 -50.5l-152 -64zM-37 402q0 -26 18 -48t47 -33q27 11 50 30t23 49q0 27 -17.5 50t-50.5 23q-18 0 -31 -6.5t-22 -17t-13 -23
t-4 -24.5zM0 12q-15 -12 -29 -12h-26q-13 0 -29.5 4t-31.5 16.5t-25 36t-10 62.5v63h28v-77q0 -44 20 -61t50 -17h39v155h28v-155h39q30 0 50 17t20 61v77h27v-63q0 -39 -10 -62.5t-24.5 -36t-31 -16.5t-29.5 -4h-26q-9 0 -15 2.5t-14 9.5z" />
    <glyph glyph-name=".shdd.e" unicode="&#xfc62;" arabic-form="isolated" 
d="M0 191q-15 -12 -29 -12h-26q-13 0 -29.5 4t-31.5 16.5t-25 36t-10 62.5v63h28v-77q0 -44 20 -61t50 -17h39v155h28v-155h39q30 0 50 17t20 61v77h27v-63q0 -39 -10 -62.5t-24.5 -36t-31 -16.5t-29.5 -4h-26q-9 0 -15 2.5t-14 9.5zM107 121l11 -26l-225 -95l-11 26z" />
    <glyph glyph-name=".shdd.aa" unicode="&#xfc63;" arabic-form="isolated" 
d="M1 12q-15 -12 -29 -12h-26q-13 0 -29.5 4t-31.5 16.5t-25 36t-10 62.5v63h28v-77q0 -44 20 -61t50 -17h39v155h28v-155h39q30 0 50 17t20 61v77h27v-63q0 -39 -10 -62.5t-24.5 -36t-31 -16.5t-29.5 -4h-26q-9 0 -15 2.5t-14 9.5zM-14 423h28v-171h-28v171z" />
    <glyph glyph-name="rial" unicode="&#xfdfc;" horiz-adv-x="1340" arabic-form="isolated" 
d="M1012 -204h24q54 0 93 18t64.5 48.5t38 70.5t12.5 83v266h37v-266q0 -61 -18.5 -109t-50.5 -81t-75.5 -50.5t-93.5 -17.5h-25zM952 39q43 0 71.5 24.5t28.5 64.5v154h36v-150q0 -61 -37.5 -96.5t-97.5 -35.5h-90q-13 0 -17.5 5t-4.5 13q0 10 4.5 15.5t17.5 5.5h89z
M913 -240h-56v51h56v-51zM795 -240h-58v51h58v-51zM848 0q-25 0 -48.5 7.5t-41.5 25.5t-28.5 47.5t-10.5 73.5v466h38v-463q0 -50 21.5 -84t72.5 -34h13q21 0 21 -19q0 -20 -21 -20h-16zM589 17q0 -52 -17 -99t-48.5 -82.5t-76.5 -56.5t-101 -21h-56q-112 0 -174 69t-62 189
v172h37v-171q0 -49 12.5 -89.5t38 -70t64.5 -45.5t91 -16h44q51 0 90 17.5t66 47.5t41 69t14 83v607h37v-603z" />
    <glyph glyph-name="alef.aa.fina" unicode="&#x622;" horiz-adv-x="218" arabic-form="final" 
d="M202 0q-25 0 -48.5 7.5t-41.5 25.5t-28.5 47.5t-10.5 73.5v338h38v-335q0 -50 21.5 -84t72.5 -34h13q21 0 21 -19q0 -20 -21 -20h-16zM48 605q-17 0 -29.5 -3.5t-21.5 -23.5l-20 -44l-27 12l23 49q7 17 14.5 26.5t16.5 14t19.5 5.5t24.5 1h170l-1 -37h-169z" />
    <glyph glyph-name="alef.thmz.fina" unicode="&#x623;" horiz-adv-x="218" arabic-form="final" 
d="M202 0q-25 0 -48.5 7.5t-41.5 25.5t-28.5 47.5t-10.5 73.5v298h38v-295q0 -50 21.5 -84t72.5 -34h13q21 0 21 -19q0 -20 -21 -20h-16zM193 613l-185 -94l-13 26l75 37q-19 3 -32.5 11.5t-22 21t-12.5 27t-4 28.5q0 42 26 68t68 26h47l-5 -28h-36q-35 0 -53.5 -20
t-18.5 -47q0 -31 20.5 -49t46.5 -18q16 0 38 11l50 25z" />
    <glyph glyph-name="vav.thmz.fina" unicode="&#x624;" horiz-adv-x="498" arabic-form="final" 
d="M148 -204q48 0 86 16.5t64 44.5t40 65t16 78h-124q-51 0 -84 11t-52 31.5t-26.5 49t-7.5 64.5q0 37 10.5 71t31.5 59.5t52 41t72 15.5q33 0 63 -11t53 -34t36.5 -60t13.5 -89v-110h106q12 0 16.5 -5.5t4.5 -13.5q0 -10 -4.5 -15t-16.5 -5h-108q-3 -49 -20 -93t-47.5 -77
t-73 -52.5t-96.5 -19.5h-108l-6 38h109zM97 157q0 -31 6.5 -53.5t23.5 -36.5t46 -21t73 -7h108v96q0 90 -35.5 130t-98.5 40q-58 0 -90.5 -41t-32.5 -107zM306 506l-185 -94l-13 26l75 37q-19 3 -32.5 11.5t-22 21t-12.5 27t-4 28.5q0 42 26 68t68 26h47l-5 -28h-36
q-35 0 -53.5 -20t-18.5 -47q0 -31 20.5 -49t46.5 -18q16 0 38 11l50 25z" />
    <glyph glyph-name="alef.bhmz.fina" unicode="&#x625;" horiz-adv-x="218" arabic-form="final" 
d="M202 0q-25 0 -48.5 7.5t-41.5 25.5t-28.5 47.5t-10.5 73.5v466h38v-463q0 -50 21.5 -84t72.5 -34h13q21 0 21 -19q0 -20 -21 -20h-16zM241 -259l-185 -94l-13 26l75 37q-19 3 -32.5 11.5t-22 21t-12.5 27t-4 28.5q0 42 26 68t68 26h47l-5 -28h-36q-35 0 -53.5 -20
t-18.5 -47q0 -31 20.5 -49t46.5 -18q16 0 38 11l50 25z" />
    <glyph glyph-name="ye.thmz.fina" unicode="&#x626;" horiz-adv-x="707" arabic-form="final" 
d="M379 -204q56 0 95 13t64 33t36 45t11 49q0 28 -13.5 46t-45.5 18h-186l6 39h361q22 0 22 -19q0 -20 -22 -20h-107q12 -12 17 -28t5 -34q0 -27 -11.5 -58.5t-39 -58.5t-73 -45t-112.5 -18h-96q-112 0 -174 69t-62 189v172h37v-171q0 -49 12.5 -89.5t38 -70t64.5 -45.5
t91 -16h82zM431 260l-185 -94l-13 26l75 37q-19 3 -32.5 11.5t-22 21t-12.5 27t-4 28.5q0 42 26 68t68 26h47l-5 -28h-36q-35 0 -53.5 -20t-18.5 -47q0 -31 20.5 -49t46.5 -18q16 0 38 11l50 25z" />
    <glyph glyph-name="ye.thmz.init" unicode="&#x626;" horiz-adv-x="284" arabic-form="initial" 
d="M89 39q43 0 71.5 24.5t28.5 64.5v154h36v-150q0 -61 -37.5 -96.5t-97.5 -35.5h-90q-13 0 -17.5 5t-4.5 13q0 10 4.5 15.5t17.5 5.5h89zM274 459l-185 -94l-13 26l75 37q-19 3 -32.5 11.5t-22 21t-12.5 27t-4 28.5q0 42 26 68t68 26h47l-5 -28h-36q-35 0 -53.5 -20
t-18.5 -47q0 -31 20.5 -49t46.5 -18q16 0 38 11l50 25z" />
    <glyph glyph-name="ye.thmz.medi" unicode="&#x626;" horiz-adv-x="345" arabic-form="medial" 
d="M80 39q48 0 74 24.5t26 64.5v154h38v-154q0 -26 8.5 -43t22 -27t30 -14.5t32.5 -4.5h34q23 0 23 -19q0 -20 -23 -20h-34q-36 0 -67 14t-48 53q-21 -39 -51.5 -53t-64.5 -14h-80q-13 0 -17.5 5t-4.5 13q0 10 4.5 15.5t17.5 5.5h80zM279 459l-185 -94l-13 26l75 37
q-19 3 -32.5 11.5t-22 21t-12.5 27t-4 28.5q0 42 26 68t68 26h47l-5 -28h-36q-35 0 -53.5 -20t-18.5 -47q0 -31 20.5 -49t46.5 -18q16 0 38 11l50 25z" />
    <glyph glyph-name="alef.fina" unicode="&#x627;" horiz-adv-x="218" arabic-form="final" 
d="M202 0q-25 0 -48.5 7.5t-41.5 25.5t-28.5 47.5t-10.5 73.5v466h38v-463q0 -50 21.5 -84t72.5 -34h13q21 0 21 -19q0 -20 -21 -20h-16z" />
    <glyph glyph-name="be.fina" unicode="&#x628;" horiz-adv-x="822" arabic-form="final" 
d="M577 39q48 0 74 24.5t26 64.5v154h37v-154q0 -26 8.5 -43t22 -27t30.5 -14.5t33 -4.5h14q13 0 17.5 -5.5t4.5 -13.5q0 -10 -4.5 -15t-17.5 -5h-14q-35 0 -66 14t-49 53q-21 -39 -51.5 -53t-64.5 -14h-369q-41 0 -70 12.5t-48 33.5t-27.5 49t-8.5 59v128h37v-120
q0 -55 29 -89t97 -34h360zM407 -171h-64v52h64v-52z" />
    <glyph glyph-name="be.init" unicode="&#x628;" horiz-adv-x="284" arabic-form="initial" 
d="M89 39q43 0 71.5 24.5t28.5 64.5v154h36v-150q0 -61 -37.5 -96.5t-97.5 -35.5h-90q-13 0 -17.5 5t-4.5 13q0 10 4.5 15.5t17.5 5.5h89zM120 -171h-64v52h64v-52z" />
    <glyph glyph-name="be.medi" unicode="&#x628;" horiz-adv-x="345" arabic-form="medial" 
d="M80 39q48 0 74 24.5t26 64.5v154h38v-154q0 -26 8.5 -43t22 -27t30 -14.5t32.5 -4.5h34q23 0 23 -19q0 -20 -23 -20h-34q-36 0 -67 14t-48 53q-21 -39 -51.5 -53t-64.5 -14h-80q-13 0 -17.5 5t-4.5 13q0 10 4.5 15.5t17.5 5.5h80zM206 -171h-64v52h64v-52z" />
    <glyph glyph-name="te.marbuta.fina" unicode="&#x629;" horiz-adv-x="502" arabic-form="final" 
d="M220 80q62 0 100.5 24.5t38.5 60.5v189h-134q-60 0 -95 -42.5t-35 -111.5q0 -35 8.5 -58t24.5 -37t39 -19.5t53 -5.5zM396 157q0 -26 4.5 -47.5t15 -37t29 -24.5t45.5 -9h12q12 0 16.5 -5.5t4.5 -13.5q0 -10 -4.5 -15t-16.5 -5h-12q-43 0 -76.5 20.5t-47.5 78.5
q-12 -17 -31 -28t-40.5 -17t-43 -8.5t-39.5 -2.5q-75 0 -114 36t-39 115q0 37 10.5 72.5t31.5 63.5t53 45t75 17h130v71h37v-306zM374 553h-60v51h60v-51zM260 553h-62v51h62v-51z" />
    <glyph glyph-name="te.fina" unicode="&#x62a;" horiz-adv-x="822" arabic-form="final" 
d="M577 39q48 0 74 24.5t26 64.5v154h37v-154q0 -26 8.5 -43t22 -27t30.5 -14.5t33 -4.5h14q13 0 17.5 -5.5t4.5 -13.5q0 -10 -4.5 -15t-17.5 -5h-14q-35 0 -66 14t-49 53q-21 -39 -51.5 -53t-64.5 -14h-369q-41 0 -70 12.5t-48 33.5t-27.5 49t-8.5 59v128h37v-120
q0 -55 29 -89t97 -34h360zM471 374h-60v51h60v-51zM357 374h-62v51h62v-51z" />
    <glyph glyph-name="te.init" unicode="&#x62a;" horiz-adv-x="284" arabic-form="initial" 
d="M89 39q43 0 71.5 24.5t28.5 64.5v154h36v-150q0 -61 -37.5 -96.5t-97.5 -35.5h-90q-13 0 -17.5 5t-4.5 13q0 10 4.5 15.5t17.5 5.5h89zM239 417h-60v51h60v-51zM125 417h-62v51h62v-51z" />
    <glyph glyph-name="te.medi" unicode="&#x62a;" horiz-adv-x="345" arabic-form="medial" 
d="M80 39q48 0 74 24.5t26 64.5v154h38v-154q0 -26 8.5 -43t22 -27t30 -14.5t32.5 -4.5h34q23 0 23 -19q0 -20 -23 -20h-34q-36 0 -67 14t-48 53q-21 -39 -51.5 -53t-64.5 -14h-80q-13 0 -17.5 5t-4.5 13q0 10 4.5 15.5t17.5 5.5h80zM278 417h-60v51h60v-51zM164 417h-62v51
h62v-51z" />
    <glyph glyph-name="the.fina" unicode="&#x62b;" horiz-adv-x="822" arabic-form="final" 
d="M577 39q48 0 74 24.5t26 64.5v154h37v-154q0 -26 8.5 -43t22 -27t30.5 -14.5t33 -4.5h14q13 0 17.5 -5.5t4.5 -13.5q0 -10 -4.5 -15t-17.5 -5h-14q-35 0 -66 14t-49 53q-21 -39 -51.5 -53t-64.5 -14h-369q-41 0 -70 12.5t-48 33.5t-27.5 49t-8.5 59v128h37v-120
q0 -55 29 -89t97 -34h360zM415 479h-62v51h62v-51zM471 374h-60v51h60v-51zM357 374h-62v51h62v-51z" />
    <glyph glyph-name="the.init" unicode="&#x62b;" horiz-adv-x="284" arabic-form="initial" 
d="M89 39q43 0 71.5 24.5t28.5 64.5v154h36v-150q0 -61 -37.5 -96.5t-97.5 -35.5h-90q-13 0 -17.5 5t-4.5 13q0 10 4.5 15.5t17.5 5.5h89zM183 522h-62v51h62v-51zM239 417h-60v51h60v-51zM125 417h-62v51h62v-51z" />
    <glyph glyph-name="the.medi" unicode="&#x62b;" horiz-adv-x="345" arabic-form="medial" 
d="M80 39q48 0 74 24.5t26 64.5v154h38v-154q0 -26 8.5 -43t22 -27t30 -14.5t32.5 -4.5h34q23 0 23 -19q0 -20 -23 -20h-34q-36 0 -67 14t-48 53q-21 -39 -51.5 -53t-64.5 -14h-80q-13 0 -17.5 5t-4.5 13q0 10 4.5 15.5t17.5 5.5h80zM222 522h-62v51h62v-51zM278 417h-60v51
h60v-51zM164 417h-62v51h62v-51z" />
    <glyph glyph-name="jim.fina" unicode="&#x62c;" horiz-adv-x="566" arabic-form="final" 
d="M443 219q-8 27 -18 48t-26 35.5t-39.5 22t-59.5 7.5h-213l6 39h210q25 0 51.5 -3t50.5 -19.5t45 -51t35 -96.5l-89 -53q10 -31 21 -52t24.5 -33.5t30.5 -18t40 -5.5h54q13 0 17.5 -5.5t4.5 -13.5q0 -10 -4.5 -15t-17.5 -5h-59q-33 0 -54.5 10t-37 27.5t-26 41.5t-20.5 53
l-82 -47q-52 -31 -90 -59t-62.5 -56.5t-36.5 -58t-12 -62.5q0 -97 51.5 -146.5t160.5 -49.5h187l-6 -38h-186q-68 0 -115 18t-75.5 49t-41 72.5t-12.5 87.5q0 38 11 72.5t35.5 66.5t64 64t96.5 66zM334 -174h-64v52h64v-52z" />
    <glyph glyph-name="jim.init" unicode="&#x62c;" horiz-adv-x="572" arabic-form="initial" 
d="M291 60q-24 -15 -47.5 -26t-50.5 -18.5t-59.5 -11.5t-75.5 -4h-58q-13 0 -17.5 5t-4.5 13q0 10 4.5 15.5t17.5 5.5h58q39 0 69 3.5t55.5 10t48 17t45.5 24.5l201 117q-9 27 -20 49t-27.5 38t-41 25t-59.5 9h-233l6 39h229q25 0 52.5 -4.5t52.5 -22.5t46.5 -53t35.5 -96z
M275 -171h-64v52h64v-52z" />
    <glyph glyph-name="jim.medi" unicode="&#x62c;" horiz-adv-x="614" arabic-form="medial" 
d="M428 142q19 -56 43.5 -79.5t68.5 -23.5h74q13 0 17.5 -5.5t4.5 -13.5q0 -10 -4.5 -15t-17.5 -5h-79q-32 0 -53.5 9.5t-37 26.5t-26 39.5t-19.5 49.5l-108 -65q-24 -14 -47.5 -25.5t-50.5 -19t-59.5 -11.5t-75.5 -4h-58q-13 0 -17.5 5t-4.5 13q0 10 4.5 15.5t17.5 5.5h58
q39 0 69 3.5t55.5 10t48 17t45.5 24.5l201 117q-9 27 -20 49t-27.5 38t-41 25t-59.5 9h-233l6 39h229q25 0 52.5 -4.5t52.5 -22.5t46.5 -53t35.5 -96zM275 -171h-64v52h64v-52z" />
    <glyph glyph-name="him.fina" unicode="&#x62d;" horiz-adv-x="566" arabic-form="final" 
d="M443 219q-8 27 -18 48t-26 35.5t-39.5 22t-59.5 7.5h-213l6 39h210q25 0 51.5 -3t50.5 -19.5t45 -51t35 -96.5l-89 -53q10 -31 21 -52t24.5 -33.5t30.5 -18t40 -5.5h54q13 0 17.5 -5.5t4.5 -13.5q0 -10 -4.5 -15t-17.5 -5h-59q-33 0 -54.5 10t-37 27.5t-26 41.5t-20.5 53
l-82 -47q-52 -31 -90 -59t-62.5 -56.5t-36.5 -58t-12 -62.5q0 -97 51.5 -146.5t160.5 -49.5h187l-6 -38h-186q-68 0 -115 18t-75.5 49t-41 72.5t-12.5 87.5q0 38 11 72.5t35.5 66.5t64 64t96.5 66z" />
    <glyph glyph-name="him.init" unicode="&#x62d;" horiz-adv-x="572" arabic-form="initial" 
d="M291 60q-24 -15 -47.5 -26t-50.5 -18.5t-59.5 -11.5t-75.5 -4h-58q-13 0 -17.5 5t-4.5 13q0 10 4.5 15.5t17.5 5.5h58q39 0 69 3.5t55.5 10t48 17t45.5 24.5l201 117q-9 27 -20 49t-27.5 38t-41 25t-59.5 9h-233l6 39h229q25 0 52.5 -4.5t52.5 -22.5t46.5 -53t35.5 -96z
" />
    <glyph glyph-name="him.medi" unicode="&#x62d;" horiz-adv-x="614" arabic-form="medial" 
d="M428 142q19 -56 43.5 -79.5t68.5 -23.5h74q13 0 17.5 -5.5t4.5 -13.5q0 -10 -4.5 -15t-17.5 -5h-79q-32 0 -53.5 9.5t-37 26.5t-26 39.5t-19.5 49.5l-108 -65q-24 -14 -47.5 -25.5t-50.5 -19t-59.5 -11.5t-75.5 -4h-58q-13 0 -17.5 5t-4.5 13q0 10 4.5 15.5t17.5 5.5h58
q39 0 69 3.5t55.5 10t48 17t45.5 24.5l201 117q-9 27 -20 49t-27.5 38t-41 25t-59.5 9h-233l6 39h229q25 0 52.5 -4.5t52.5 -22.5t46.5 -53t35.5 -96z" />
    <glyph glyph-name="khe.fina" unicode="&#x62e;" horiz-adv-x="566" arabic-form="final" 
d="M443 219q-8 27 -18 48t-26 35.5t-39.5 22t-59.5 7.5h-213l6 39h210q25 0 51.5 -3t50.5 -19.5t45 -51t35 -96.5l-89 -53q10 -31 21 -52t24.5 -33.5t30.5 -18t40 -5.5h54q13 0 17.5 -5.5t4.5 -13.5q0 -10 -4.5 -15t-17.5 -5h-59q-33 0 -54.5 10t-37 27.5t-26 41.5t-20.5 53
l-82 -47q-52 -31 -90 -59t-62.5 -56.5t-36.5 -58t-12 -62.5q0 -97 51.5 -146.5t160.5 -49.5h187l-6 -38h-186q-68 0 -115 18t-75.5 49t-41 72.5t-12.5 87.5q0 38 11 72.5t35.5 66.5t64 64t96.5 66zM281 490h-64v52h64v-52z" />
    <glyph glyph-name="khe.init" unicode="&#x62e;" horiz-adv-x="572" arabic-form="initial" 
d="M291 60q-24 -15 -47.5 -26t-50.5 -18.5t-59.5 -11.5t-75.5 -4h-58q-13 0 -17.5 5t-4.5 13q0 10 4.5 15.5t17.5 5.5h58q39 0 69 3.5t55.5 10t48 17t45.5 24.5l201 117q-9 27 -20 49t-27.5 38t-41 25t-59.5 9h-233l6 39h229q25 0 52.5 -4.5t52.5 -22.5t46.5 -53t35.5 -96z
M285 490h-64v52h64v-52z" />
    <glyph glyph-name="khe.medi" unicode="&#x62e;" horiz-adv-x="614" arabic-form="medial" 
d="M428 142q19 -56 43.5 -79.5t68.5 -23.5h74q13 0 17.5 -5.5t4.5 -13.5q0 -10 -4.5 -15t-17.5 -5h-79q-32 0 -53.5 9.5t-37 26.5t-26 39.5t-19.5 49.5l-108 -65q-24 -14 -47.5 -25.5t-50.5 -19t-59.5 -11.5t-75.5 -4h-58q-13 0 -17.5 5t-4.5 13q0 10 4.5 15.5t17.5 5.5h58
q39 0 69 3.5t55.5 10t48 17t45.5 24.5l201 117q-9 27 -20 49t-27.5 38t-41 25t-59.5 9h-233l6 39h229q25 0 52.5 -4.5t52.5 -22.5t46.5 -53t35.5 -96zM285 490h-64v52h64v-52z" />
    <glyph glyph-name="dal.fina" unicode="&#x62f;" horiz-adv-x="516" arabic-form="final" 
d="M261 39q25 0 43 6.5t29.5 16.5t16.5 22t5 22q0 12 -4.5 31.5t-16.5 56.5t-32.5 95.5t-53.5 148.5l36 15l110 -319q17 -52 41.5 -73.5t64.5 -21.5h16q22 0 22 -19q0 -20 -22 -20h-16q-33 0 -62 13t-54 57q-20 -44 -52 -57t-69 -13h-214l-6 39h218z" />
    <glyph glyph-name="zal.fina" unicode="&#x630;" horiz-adv-x="516" arabic-form="final" 
d="M261 39q25 0 43 6.5t29.5 16.5t16.5 22t5 22q0 12 -4.5 31.5t-16.5 56.5t-32.5 95.5t-53.5 148.5l36 15l110 -319q17 -52 41.5 -73.5t64.5 -21.5h16q22 0 22 -19q0 -20 -22 -20h-16q-33 0 -62 13t-54 57q-20 -44 -52 -57t-69 -13h-214l-6 39h218zM302 601h-64v52h64v-52z
" />
    <glyph glyph-name="re.fina" unicode="&#x631;" horiz-adv-x="259" arabic-form="final" 
d="M152 16q0 -61 -18 -109t-50 -81t-75.5 -50.5t-93.5 -17.5h-56l-5 38h53q54 0 93.5 18t65 48.5t38 70.5t12.5 83v266h37v-158q0 -37 25.5 -61t69.5 -24h11q22 0 22 -19q0 -20 -22 -20h-11q-28 0 -53.5 10.5t-42.5 34.5v-29z" />
    <glyph glyph-name="ze.fina" unicode="&#x632;" horiz-adv-x="259" arabic-form="final" 
d="M152 16q0 -61 -18 -109t-50 -81t-75.5 -50.5t-93.5 -17.5h-56l-5 38h53q54 0 93.5 18t65 48.5t38 70.5t12.5 83v266h37v-158q0 -37 25.5 -61t69.5 -24h11q22 0 22 -19q0 -20 -22 -20h-11q-28 0 -53.5 10.5t-42.5 34.5v-29zM158 417h-64v52h64v-52z" />
    <glyph glyph-name="sin.fina" unicode="&#x633;" horiz-adv-x="1175" arabic-form="final" 
d="M589 124q0 -37 26.5 -61t74.5 -24q52 0 81 24.5t29 64.5v154h37v-154q0 -26 8 -43t21.5 -27t30 -14.5t34.5 -4.5q48 0 73.5 24.5t25.5 64.5v154h37v-154q0 -26 8.5 -43t22 -27t30.5 -14.5t33 -4.5h14q22 0 22 -19q0 -20 -22 -20h-14q-36 0 -67 14t-48 53q-21 -39 -52 -53
t-63 -14q-36 0 -67 14t-48 53q-21 -39 -55 -53t-71 -14q-36 0 -61.5 12t-39.5 33v-29q0 -51 -17 -98t-48.5 -82.5t-76.5 -56.5t-101 -21h-56q-112 0 -174 69t-62 189v172h37v-171q0 -49 12.5 -89.5t38 -70t64.5 -45.5t91 -16h44q51 0 90 17.5t66 47.5t41 69t14 83v269h37
v-158z" />
    <glyph glyph-name="sin.init" unicode="&#x633;" horiz-adv-x="708" arabic-form="initial" 
d="M30 39q48 0 76 24.5t28 64.5v154h38v-154q0 -26 9 -43t23 -27t31.5 -14.5t35.5 -4.5q52 0 81.5 24.5t29.5 64.5v154h38v-154q0 -26 8 -43t21 -27t30 -14.5t35 -4.5q43 0 70.5 24.5t27.5 64.5v154h37v-150q0 -61 -37.5 -96.5t-97.5 -35.5q-37 0 -68 14t-48 53
q-21 -39 -55 -53t-72 -14q-40 0 -72 14t-49 53q-21 -39 -55 -53t-70 -14h-25q-13 0 -17.5 5t-4.5 13q0 10 4.5 15.5t17.5 5.5h30z" />
    <glyph glyph-name="sin.medi" unicode="&#x633;" horiz-adv-x="758" arabic-form="medial" 
d="M30 39q48 0 76 24.5t28 64.5v154h38v-154q0 -26 9 -43t23 -27t31.5 -14.5t35.5 -4.5q52 0 81.5 24.5t29.5 64.5v154h38v-154q0 -26 8 -43t21 -27t30 -14.5t35 -4.5q46 0 72 24.5t26 64.5v154h37v-154q0 -26 8.5 -43t22 -27t30 -14.5t32.5 -4.5h16q22 0 22 -19
q0 -20 -22 -20h-16q-35 0 -66 14t-48 53q-21 -39 -51.5 -53t-62.5 -14q-38 0 -68.5 14t-47.5 53q-21 -39 -55 -53t-72 -14q-40 0 -72 14t-49 53q-21 -39 -55 -53t-70 -14h-25q-13 0 -17.5 5t-4.5 13q0 10 4.5 15.5t17.5 5.5h30z" />
    <glyph glyph-name="shin.fina" unicode="&#x634;" horiz-adv-x="1175" arabic-form="final" 
d="M589 124q0 -37 26.5 -61t74.5 -24q52 0 81 24.5t29 64.5v154h37v-154q0 -26 8 -43t21.5 -27t30 -14.5t34.5 -4.5q48 0 73.5 24.5t25.5 64.5v154h37v-154q0 -26 8.5 -43t22 -27t30.5 -14.5t33 -4.5h14q22 0 22 -19q0 -20 -22 -20h-14q-36 0 -67 14t-48 53q-21 -39 -52 -53
t-63 -14q-36 0 -67 14t-48 53q-21 -39 -55 -53t-71 -14q-36 0 -61.5 12t-39.5 33v-29q0 -51 -17 -98t-48.5 -82.5t-76.5 -56.5t-101 -21h-56q-112 0 -174 69t-62 189v172h37v-171q0 -49 12.5 -89.5t38 -70t64.5 -45.5t91 -16h44q51 0 90 17.5t66 47.5t41 69t14 83v269h37
v-158zM852 522h-62v51h62v-51zM908 417h-60v51h60v-51zM794 417h-62v51h62v-51z" />
    <glyph glyph-name="shin.init" unicode="&#x634;" horiz-adv-x="708" arabic-form="initial" 
d="M30 39q48 0 76 24.5t28 64.5v154h38v-154q0 -26 9 -43t23 -27t31.5 -14.5t35.5 -4.5q52 0 81.5 24.5t29.5 64.5v154h38v-154q0 -26 8 -43t21 -27t30 -14.5t35 -4.5q43 0 70.5 24.5t27.5 64.5v154h37v-150q0 -61 -37.5 -96.5t-97.5 -35.5q-37 0 -68 14t-48 53
q-21 -39 -55 -53t-72 -14q-40 0 -72 14t-49 53q-21 -39 -55 -53t-70 -14h-25q-13 0 -17.5 5t-4.5 13q0 10 4.5 15.5t17.5 5.5h30zM434 522h-62v51h62v-51zM490 417h-60v51h60v-51zM376 417h-62v51h62v-51z" />
    <glyph glyph-name="shin.medi" unicode="&#x634;" horiz-adv-x="758" arabic-form="medial" 
d="M30 39q48 0 76 24.5t28 64.5v154h38v-154q0 -26 9 -43t23 -27t31.5 -14.5t35.5 -4.5q52 0 81.5 24.5t29.5 64.5v154h38v-154q0 -26 8 -43t21 -27t30 -14.5t35 -4.5q46 0 72 24.5t26 64.5v154h37v-154q0 -26 8.5 -43t22 -27t30 -14.5t32.5 -4.5h16q22 0 22 -19
q0 -20 -22 -20h-16q-35 0 -66 14t-48 53q-21 -39 -51.5 -53t-62.5 -14q-38 0 -68.5 14t-47.5 53q-21 -39 -55 -53t-72 -14q-40 0 -72 14t-49 53q-21 -39 -55 -53t-70 -14h-25q-13 0 -17.5 5t-4.5 13q0 10 4.5 15.5t17.5 5.5h30zM434 522h-62v51h62v-51zM490 417h-60v51h60
v-51zM376 417h-62v51h62v-51z" />
    <glyph glyph-name="sad.fina" unicode="&#x635;" horiz-adv-x="1246" arabic-form="final" 
d="M655 43q50 92 93.5 155.5t82.5 102.5t75.5 56.5t72.5 17.5q37 0 68.5 -15.5t54.5 -41.5t35.5 -61.5t12.5 -74.5q0 -29 -8 -57t-25 -51q20 -24 47 -29.5t66 -5.5h16q22 0 22 -19q0 -20 -22 -20h-16q-17 0 -34.5 0.5t-35 5t-33.5 14t-31 26.5q-21 -20 -51.5 -33t-71.5 -13
h-277q-39 0 -66 12t-41 34v-30q0 -51 -17 -98t-48.5 -82.5t-76.5 -56.5t-101 -21h-56q-112 0 -174 69t-62 189v172h37v-171q0 -49 12.5 -89.5t38 -70t64.5 -45.5t91 -16h44q51 0 90 17.5t66 47.5t41 69t14 83v269h37v-156q0 -30 18 -53t48 -30zM1112 182q0 34 -10.5 62.5
t-29 48.5t-43 31.5t-51.5 11.5q-66 0 -134.5 -71.5t-152.5 -225.5h283q25 0 50 8t44.5 25t31.5 44.5t12 65.5z" />
    <glyph glyph-name="sad.init" unicode="&#x635;" horiz-adv-x="785" arabic-form="initial" 
d="M236 43q50 92 93 155.5t82 102.5t75.5 56.5t73.5 17.5t68.5 -15.5t54.5 -41.5t35.5 -61.5t12.5 -74.5q0 -33 -10.5 -65.5t-32.5 -58.5t-55.5 -42t-78.5 -16h-284q-40 0 -72 14t-49 53q-21 -39 -55 -53t-70 -14h-24q-13 0 -17.5 5t-4.5 13q0 10 4.5 15.5t17.5 5.5h29
q48 0 76 24.5t28 64.5v154h37v-154q0 -32 19 -55t47 -30zM693 182q0 34 -10.5 62.5t-29 48.5t-43 31.5t-51.5 11.5q-65 0 -134.5 -71.5t-152.5 -225.5h282q26 0 51 8t44.5 25t31.5 44.5t12 65.5z" />
    <glyph glyph-name="sad.medi" unicode="&#x635;" horiz-adv-x="828" arabic-form="medial" 
d="M236 43q50 92 93 155.5t82 102.5t75.5 56.5t73.5 17.5t68.5 -15.5t54.5 -41.5t35.5 -61.5t12.5 -74.5q0 -29 -8 -57t-25 -51q20 -24 47.5 -29.5t65.5 -5.5h17q22 0 22 -19q0 -20 -22 -20h-17q-17 0 -34.5 0.5t-35 5t-33.5 14t-30 26.5q-22 -20 -52.5 -33t-71.5 -13h-284
q-40 0 -72 14t-49 53q-21 -39 -55 -53t-70 -14h-24q-13 0 -17.5 5t-4.5 13q0 10 4.5 15.5t17.5 5.5h29q48 0 76 24.5t28 64.5v154h37v-154q0 -32 19 -55t47 -30zM693 182q0 34 -10.5 62.5t-29 48.5t-43 31.5t-51.5 11.5q-65 0 -134.5 -71.5t-152.5 -225.5h282q26 0 51 8
t44.5 25t31.5 44.5t12 65.5z" />
    <glyph glyph-name="zad.fina" unicode="&#x636;" horiz-adv-x="1246" arabic-form="final" 
d="M655 43q50 92 93.5 155.5t82.5 102.5t75.5 56.5t72.5 17.5q37 0 68.5 -15.5t54.5 -41.5t35.5 -61.5t12.5 -74.5q0 -29 -8 -57t-25 -51q20 -24 47 -29.5t66 -5.5h16q22 0 22 -19q0 -20 -22 -20h-16q-17 0 -34.5 0.5t-35 5t-33.5 14t-31 26.5q-21 -20 -51.5 -33t-71.5 -13
h-277q-39 0 -66 12t-41 34v-30q0 -51 -17 -98t-48.5 -82.5t-76.5 -56.5t-101 -21h-56q-112 0 -174 69t-62 189v172h37v-171q0 -49 12.5 -89.5t38 -70t64.5 -45.5t91 -16h44q51 0 90 17.5t66 47.5t41 69t14 83v269h37v-156q0 -30 18 -53t48 -30zM1112 182q0 34 -10.5 62.5
t-29 48.5t-43 31.5t-51.5 11.5q-66 0 -134.5 -71.5t-152.5 -225.5h283q25 0 50 8t44.5 25t31.5 44.5t12 65.5zM945 479h-64v52h64v-52z" />
    <glyph glyph-name="zad.init" unicode="&#x636;" horiz-adv-x="785" arabic-form="initial" 
d="M236 43q50 92 93 155.5t82 102.5t75.5 56.5t73.5 17.5t68.5 -15.5t54.5 -41.5t35.5 -61.5t12.5 -74.5q0 -33 -10.5 -65.5t-32.5 -58.5t-55.5 -42t-78.5 -16h-284q-40 0 -72 14t-49 53q-21 -39 -55 -53t-70 -14h-24q-13 0 -17.5 5t-4.5 13q0 10 4.5 15.5t17.5 5.5h29
q48 0 76 24.5t28 64.5v154h37v-154q0 -32 19 -55t47 -30zM693 182q0 34 -10.5 62.5t-29 48.5t-43 31.5t-51.5 11.5q-65 0 -134.5 -71.5t-152.5 -225.5h282q26 0 51 8t44.5 25t31.5 44.5t12 65.5zM526 479h-64v52h64v-52z" />
    <glyph glyph-name="zad.medi" unicode="&#x636;" horiz-adv-x="828" arabic-form="medial" 
d="M236 43q50 92 93 155.5t82 102.5t75.5 56.5t73.5 17.5t68.5 -15.5t54.5 -41.5t35.5 -61.5t12.5 -74.5q0 -29 -8 -57t-25 -51q20 -24 47.5 -29.5t65.5 -5.5h17q22 0 22 -19q0 -20 -22 -20h-17q-17 0 -34.5 0.5t-35 5t-33.5 14t-30 26.5q-22 -20 -52.5 -33t-71.5 -13h-284
q-40 0 -72 14t-49 53q-21 -39 -55 -53t-70 -14h-24q-13 0 -17.5 5t-4.5 13q0 10 4.5 15.5t17.5 5.5h29q48 0 76 24.5t28 64.5v154h37v-154q0 -32 19 -55t47 -30zM693 182q0 34 -10.5 62.5t-29 48.5t-43 31.5t-51.5 11.5q-65 0 -134.5 -71.5t-152.5 -225.5h282q26 0 51 8
t44.5 25t31.5 44.5t12 65.5zM526 479h-64v52h64v-52z" />
    <glyph glyph-name="ta.fina" unicode="&#x637;" horiz-adv-x="738" arabic-form="final" 
d="M146 620h38v-326v-90.5t-1 -88.5q82 139 152.5 199.5t135.5 60.5q37 0 68.5 -15.5t54.5 -41.5t35.5 -61.5t12.5 -74.5q0 -29 -8 -57t-25 -51q20 -24 47 -29.5t67 -5.5h15q13 0 17.5 -5.5t4.5 -13.5q0 -10 -4.5 -15t-17.5 -5h-15q-18 0 -36 0.5t-35 5t-33 14t-31 26.5
q-21 -20 -51.5 -33t-71.5 -13h-411l-5 39h97v581zM604 182q0 34 -10.5 62.5t-29 48.5t-43 31.5t-51.5 11.5q-66 0 -134.5 -71.5t-153.5 -225.5h284q25 0 50 8t44.5 25t31.5 44.5t12 65.5z" />
    <glyph glyph-name="ta.init" unicode="&#x637;" horiz-adv-x="656" arabic-form="initial" 
d="M107 620h37v-326v-89.5t-1 -89.5q68 113 126 173t113 78q14 5 27.5 6.5t27.5 1.5q36 -1 66.5 -16.5t52.5 -42t34 -60.5t12 -73q0 -33 -10.5 -65.5t-32 -58.5t-55 -42t-78.5 -16h-426q-13 0 -17.5 5t-4.5 13q0 10 4.5 15.5t17.5 5.5h107v581zM565 182q0 34 -10.5 62.5
t-29 48.5t-43 31.5t-52.5 11.5q-66 0 -134.5 -71.5t-153.5 -225.5h285q25 0 50 8t44.5 25t31.5 44.5t12 65.5z" />
    <glyph glyph-name="ta.medi" unicode="&#x637;" horiz-adv-x="699" arabic-form="medial" 
d="M107 620h37v-326v-90.5t-1 -88.5q72 121 133.5 181.5t120.5 74.5q11 2 20 2.5t19 0.5q36 -1 66.5 -16.5t52.5 -41.5t34.5 -60.5t12.5 -73.5q0 -29 -8 -57t-25 -51q20 -24 47.5 -29.5t65.5 -5.5h17q22 0 22 -19q0 -20 -22 -20h-17q-17 0 -34.5 0.5t-35 5t-33.5 14
t-30 26.5q-22 -20 -52.5 -33t-70.5 -13h-426q-13 0 -17.5 5t-4.5 13q0 10 4.5 15.5t17.5 5.5h107v581zM565 182q0 34 -10.5 62.5t-29 48.5t-43 31.5t-52.5 11.5q-66 0 -134.5 -71.5t-153.5 -225.5h285q25 0 50 8t44.5 25t31.5 44.5t12 65.5z" />
    <glyph glyph-name="za.fina" unicode="&#x638;" horiz-adv-x="738" arabic-form="final" 
d="M146 620h38v-326v-90.5t-1 -88.5q82 139 152.5 199.5t135.5 60.5q37 0 68.5 -15.5t54.5 -41.5t35.5 -61.5t12.5 -74.5q0 -29 -8 -57t-25 -51q20 -24 47 -29.5t67 -5.5h15q13 0 17.5 -5.5t4.5 -13.5q0 -10 -4.5 -15t-17.5 -5h-15q-18 0 -36 0.5t-35 5t-33 14t-31 26.5
q-21 -20 -51.5 -33t-71.5 -13h-411l-5 39h97v581zM604 182q0 34 -10.5 62.5t-29 48.5t-43 31.5t-51.5 11.5q-66 0 -134.5 -71.5t-153.5 -225.5h284q25 0 50 8t44.5 25t31.5 44.5t12 65.5zM499 504h-64v52h64v-52z" />
    <glyph glyph-name="za.init" unicode="&#x638;" horiz-adv-x="656" arabic-form="initial" 
d="M107 620h37v-326v-89.5t-1 -89.5q68 113 126 173t113 78q14 5 27.5 6.5t27.5 1.5q36 -1 66.5 -16.5t52.5 -42t34 -60.5t12 -73q0 -33 -10.5 -65.5t-32 -58.5t-55 -42t-78.5 -16h-426q-13 0 -17.5 5t-4.5 13q0 10 4.5 15.5t17.5 5.5h107v581zM565 182q0 34 -10.5 62.5
t-29 48.5t-43 31.5t-52.5 11.5q-66 0 -134.5 -71.5t-153.5 -225.5h285q25 0 50 8t44.5 25t31.5 44.5t12 65.5zM455 504h-64v52h64v-52z" />
    <glyph glyph-name="za.medi" unicode="&#x638;" horiz-adv-x="699" arabic-form="medial" 
d="M107 620h37v-326v-90.5t-1 -88.5q72 121 133.5 181.5t120.5 74.5q11 2 20 2.5t19 0.5q36 -1 66.5 -16.5t52.5 -41.5t34.5 -60.5t12.5 -73.5q0 -29 -8 -57t-25 -51q20 -24 47.5 -29.5t65.5 -5.5h17q22 0 22 -19q0 -20 -22 -20h-17q-17 0 -34.5 0.5t-35 5t-33.5 14
t-30 26.5q-22 -20 -52.5 -33t-70.5 -13h-426q-13 0 -17.5 5t-4.5 13q0 10 4.5 15.5t17.5 5.5h107v581zM565 182q0 34 -10.5 62.5t-29 48.5t-43 31.5t-52.5 11.5q-66 0 -134.5 -71.5t-153.5 -225.5h285q25 0 50 8t44.5 25t31.5 44.5t12 65.5zM455 504h-64v52h64v-52z" />
    <glyph glyph-name="ein.fina" unicode="&#x639;" horiz-adv-x="527" arabic-form="final" 
d="M246 60q-42 -31 -71.5 -59t-48 -55.5t-27 -56t-8.5 -60.5q0 -87 47.5 -131.5t155.5 -44.5h185l-5 -38h-185q-68 0 -113.5 17.5t-72.5 47t-38 68t-11 80.5q0 76 40.5 136t126.5 122l-167 214l26 47h254q22 0 41.5 -5t34.5 -14.5t23.5 -24.5t8.5 -36q0 -14 -4 -29t-20 -36
t-47.5 -50.5t-86.5 -73.5q16 -15 32.5 -22.5t36.5 -11.5t44 -4.5t55 -0.5h75q13 0 17.5 -5.5t4.5 -13.5q0 -10 -4.5 -15t-17.5 -5h-78q-35 0 -63 1t-52.5 6.5t-45.5 17.5t-42 35zM403 258q0 23 -19.5 37t-58.5 14h-231l163 -210q43 36 71 60.5t44.5 41.5t23.5 30t7 27z" />
    <glyph glyph-name="ein.init" unicode="&#x639;" horiz-adv-x="482" arabic-form="initial" 
d="M164 39q-21 18 -34 38.5t-20.5 40.5t-10.5 38.5t-3 31.5q0 35 12 66t34 53.5t52.5 35.5t68.5 13q34 0 65 -10t69 -35l-16 -30q-32 19 -61 27.5t-57 8.5q-29 0 -52.5 -10.5t-40.5 -28.5t-26.5 -41.5t-9.5 -48.5q0 -26 9 -52t24.5 -48t35.5 -35.5t42 -13.5h183l-5 -39h-423
q-13 0 -17.5 5t-4.5 13q0 10 4.5 15.5t17.5 5.5h164z" />
    <glyph glyph-name="ein.medi" unicode="&#x639;" horiz-adv-x="564" arabic-form="medial" 
d="M36 39q25 0 52.5 1.5t55.5 6.5t56 14.5t55 26.5l-164 212l26 47h254q42 0 73 -18t33 -59v-9t-1 -9q-2 -12 -8.5 -26.5t-23.5 -35t-46.5 -47.5t-77.5 -65q16 -15 33 -22.5t36.5 -11.5t43.5 -4.5t55 -0.5h76q22 0 22 -19q0 -20 -22 -20h-79q-34 0 -62.5 1t-52.5 6.5
t-45.5 17.5t-42.5 35q-53 -36 -110.5 -48t-134.5 -12h-37q-13 0 -17.5 5t-4.5 13q0 10 4.5 15.5t17.5 5.5h36zM439 258q0 23 -19.5 37t-57.5 14h-231l162 -210q43 36 71.5 60.5t45 41.5t23 30t6.5 27z" />
    <glyph glyph-name="qein.fina" unicode="&#x63a;" horiz-adv-x="527" arabic-form="final" 
d="M246 60q-42 -31 -71.5 -59t-48 -55.5t-27 -56t-8.5 -60.5q0 -87 47.5 -131.5t155.5 -44.5h185l-5 -38h-185q-68 0 -113.5 17.5t-72.5 47t-38 68t-11 80.5q0 76 40.5 136t126.5 122l-167 214l26 47h254q22 0 41.5 -5t34.5 -14.5t23.5 -24.5t8.5 -36q0 -14 -4 -29t-20 -36
t-47.5 -50.5t-86.5 -73.5q16 -15 32.5 -22.5t36.5 -11.5t44 -4.5t55 -0.5h75q13 0 17.5 -5.5t4.5 -13.5q0 -10 -4.5 -15t-17.5 -5h-78q-35 0 -63 1t-52.5 6.5t-45.5 17.5t-42 35zM403 258q0 23 -19.5 37t-58.5 14h-231l163 -210q43 36 71 60.5t44.5 41.5t23.5 30t7 27z
M289 506h-64v52h64v-52z" />
    <glyph glyph-name="qein.init" unicode="&#x63a;" horiz-adv-x="482" arabic-form="initial" 
d="M164 39q-21 18 -34 38.5t-20.5 40.5t-10.5 38.5t-3 31.5q0 35 12 66t34 53.5t52.5 35.5t68.5 13q34 0 65 -10t69 -35l-16 -30q-32 19 -61 27.5t-57 8.5q-29 0 -52.5 -10.5t-40.5 -28.5t-26.5 -41.5t-9.5 -48.5q0 -26 9 -52t24.5 -48t35.5 -35.5t42 -13.5h183l-5 -39h-423
q-13 0 -17.5 5t-4.5 13q0 10 4.5 15.5t17.5 5.5h164zM269 494h-64v52h64v-52z" />
    <glyph glyph-name="qein.medi" unicode="&#x63a;" horiz-adv-x="564" arabic-form="medial" 
d="M36 39q25 0 52.5 1.5t55.5 6.5t56 14.5t55 26.5l-164 212l26 47h254q42 0 73 -18t33 -59v-9t-1 -9q-2 -12 -8.5 -26.5t-23.5 -35t-46.5 -47.5t-77.5 -65q16 -15 33 -22.5t36.5 -11.5t43.5 -4.5t55 -0.5h76q22 0 22 -19q0 -20 -22 -20h-79q-34 0 -62.5 1t-52.5 6.5
t-45.5 17.5t-42.5 35q-53 -36 -110.5 -48t-134.5 -12h-37q-13 0 -17.5 5t-4.5 13q0 10 4.5 15.5t17.5 5.5h36zM439 258q0 23 -19.5 37t-57.5 14h-231l162 -210q43 36 71.5 60.5t45 41.5t23 30t6.5 27zM329 506h-64v52h64v-52z" />
    <glyph glyph-name="fe.fina" unicode="&#x641;" horiz-adv-x="898" arabic-form="final" 
d="M631 345q-31 0 -56 -10.5t-42 -29t-26.5 -43t-9.5 -51.5q0 -32 14 -58t35.5 -46.5t47 -34.5t47.5 -22q16 8 37.5 22t40.5 34t32.5 45t13.5 56q0 61 -36 99.5t-98 38.5zM636 384q42 0 73 -14.5t51.5 -37.5t31 -52.5t10.5 -60.5q0 -53 -28.5 -99t-89.5 -81h214q22 0 22 -19
q0 -20 -22 -20h-118q-46 0 -82 1.5t-56 10.5q-15 -5 -35.5 -7t-42 -3.5t-42 -1.5h-34.5h-275q-41 0 -70.5 12.5t-48 33.5t-27 49t-8.5 59v128h37v-120q0 -55 29 -89t96 -34h371q-58 26 -95 71t-37 103q0 33 12 64t34.5 54.5t55.5 38t74 14.5zM663 494h-64v52h64v-52z" />
    <glyph glyph-name="fe.init" unicode="&#x641;" horiz-adv-x="487" arabic-form="initial" 
d="M227 39q42 0 76 7q-72 22 -113.5 42.5t-62 42t-26 45.5t-5.5 54q0 28 11 57.5t32.5 53.5t53.5 39t73 15q37 0 68 -10.5t53 -34t34 -60.5t12 -89v-40q0 -75 -46.5 -118t-146.5 -43h-240q-13 0 -17.5 5t-4.5 13q0 10 4.5 15.5t17.5 5.5h227zM261 356q-29 0 -52.5 -10.5
t-40.5 -28t-26 -40t-9 -45.5t4 -42.5t25 -38.5t65 -39.5t124 -46.5q20 14 32 37.5t12 55.5v38q0 77 -31.5 118.5t-102.5 41.5zM298 506h-64v52h64v-52z" />
    <glyph glyph-name="fe.medi" unicode="&#x641;" horiz-adv-x="534" arabic-form="medial" 
d="M229 39q-59 26 -96 71t-37 103q0 33 12 64t35 54.5t56 38t74 14.5t72 -14.5t51.5 -37.5t31 -52.5t10.5 -60.5q0 -53 -28 -99t-90 -81h214q22 0 22 -19q0 -20 -22 -20h-118q-45 0 -81 1.5t-57 10.5q-14 -5 -34.5 -7t-42 -3.5t-42 -1.5h-34.5h-125q-13 0 -17.5 5t-4.5 13
q0 10 4.5 15.5t17.5 5.5h229zM267 345q-31 0 -55.5 -10.5t-42 -29t-26.5 -43t-9 -51.5q0 -32 14 -58t35.5 -46.5t46.5 -34.5t47 -22q16 8 37.5 22t40.5 34t32.5 45t13.5 56q0 61 -35.5 99.5t-98.5 38.5zM309 494h-64v52h64v-52z" />
    <glyph glyph-name="qaf.fina" unicode="&#x642;" horiz-adv-x="761" arabic-form="final" 
d="M652 0q-2 -49 -20 -93t-49.5 -77t-74.5 -52.5t-96 -19.5h-122q-112 0 -174 69t-62 189v172h37v-171q0 -49 12.5 -89.5t38 -70t64.5 -45.5t91 -16h109q48 0 86.5 16.5t65.5 44.5t42 65t17 78h-124q-51 0 -84.5 11t-52.5 31.5t-26.5 49t-7.5 64.5q0 37 11 71t32 59.5t52 41
t72 15.5q33 0 62.5 -11t52 -34t36 -60t13.5 -89v-110h108q22 0 22 -19q0 -20 -22 -20h-109zM360 157q0 -31 6.5 -53.5t23.5 -36.5t45.5 -21t73.5 -7h108v96q0 90 -35.5 130t-98.5 40q-58 0 -90.5 -41t-32.5 -107zM580 466h-60v51h60v-51zM466 466h-62v51h62v-51z" />
    <glyph glyph-name="qaf.init" unicode="&#x642;" horiz-adv-x="487" arabic-form="initial" 
d="M227 39q42 0 76 7q-72 22 -113.5 42.5t-62 42t-26 45.5t-5.5 54q0 28 11 57.5t32.5 53.5t53.5 39t73 15q37 0 68 -10.5t53 -34t34 -60.5t12 -89v-40q0 -75 -46.5 -118t-146.5 -43h-240q-13 0 -17.5 5t-4.5 13q0 10 4.5 15.5t17.5 5.5h227zM261 356q-29 0 -52.5 -10.5
t-40.5 -28t-26 -40t-9 -45.5t4 -42.5t25 -38.5t65 -39.5t124 -46.5q20 14 32 37.5t12 55.5v38q0 77 -31.5 118.5t-102.5 41.5zM352 506h-60v51h60v-51zM238 506h-62v51h62v-51z" />
    <glyph glyph-name="qaf.medi" unicode="&#x642;" horiz-adv-x="534" arabic-form="medial" 
d="M229 39q-59 26 -96 71t-37 103q0 33 12 64t35 54.5t56 38t74 14.5t72 -14.5t51.5 -37.5t31 -52.5t10.5 -60.5q0 -53 -28 -99t-90 -81h214q22 0 22 -19q0 -20 -22 -20h-118q-45 0 -81 1.5t-57 10.5q-14 -5 -34.5 -7t-42 -3.5t-42 -1.5h-34.5h-125q-13 0 -17.5 5t-4.5 13
q0 10 4.5 15.5t17.5 5.5h229zM267 345q-31 0 -55.5 -10.5t-42 -29t-26.5 -43t-9 -51.5q0 -32 14 -58t35.5 -46.5t46.5 -34.5t47 -22q16 8 37.5 22t40.5 34t32.5 45t13.5 56q0 61 -35.5 99.5t-98.5 38.5zM354 490h-60v51h60v-51zM240 490h-62v51h62v-51z" />
    <glyph glyph-name="kaf.arab.fina" unicode="&#x643;" horiz-adv-x="810" arabic-form="final" 
d="M425 209v96q0 8 -6 15t-23 7h-125v108q0 47 27.5 73.5t78.5 26.5h42l5 -33h-47q-72 0 -72 -68v-73h107q26 0 36 -15t10 -33v-104h-33zM213 0q-41 0 -70.5 12.5t-48 33.5t-27 49t-8.5 59v128h37v-120q0 -55 29 -89t96 -34h344q48 0 74 24.5t26 64.5v492h37v-492
q0 -26 8.5 -43t22 -27t30 -14.5t33.5 -4.5h14q22 0 22 -19q0 -20 -22 -20h-15q-35 0 -66 14t-48 53q-22 -39 -52.5 -53t-63.5 -14h-352z" />
    <glyph glyph-name="lam.fina" unicode="&#x644;" horiz-adv-x="695" arabic-form="final" 
d="M684 0q-27 0 -53 10.5t-42 34.5v-28q0 -52 -17 -99t-48.5 -82.5t-76.5 -56.5t-101 -21h-56q-112 0 -174 69t-62 189v172h37v-171q0 -49 12.5 -89.5t38 -70t64.5 -45.5t91 -16h44q51 0 90 17.5t66 47.5t41 69t14 83v607h37v-496q0 -37 26 -61t69 -24h11q23 0 23 -19
q0 -20 -23 -20h-11z" />
    <glyph glyph-name="lam.init" unicode="&#x644;" horiz-adv-x="237" arabic-form="initial" 
d="M27 39q44 0 71.5 24.5t27.5 64.5v492h37v-488q0 -61 -37 -96.5t-98 -35.5h-28q-13 0 -17.5 5t-4.5 13q0 10 4.5 15.5t17.5 5.5h27z" />
    <glyph glyph-name="lam.medi" unicode="&#x644;" horiz-adv-x="271" arabic-form="medial" 
d="M27 39q48 0 73.5 24.5t25.5 64.5v492h37v-492q0 -26 8.5 -43t22 -27t30.5 -14.5t33 -4.5h14q13 0 17.5 -5.5t4.5 -13.5q0 -10 -4.5 -15t-17.5 -5h-14q-35 0 -66.5 14t-48.5 53q-20 -39 -51.5 -53t-63.5 -14h-27q-13 0 -17.5 5t-4.5 13q0 10 4.5 15.5t17.5 5.5h27z" />
    <glyph glyph-name="mim.fina" unicode="&#x645;" horiz-adv-x="678" arabic-form="final" 
d="M572 140q0 -56 24.5 -78.5t60.5 -22.5h21q13 0 17.5 -5.5t4.5 -13.5q0 -10 -4.5 -15t-17.5 -5h-21q-33 0 -60.5 12.5t-44.5 56.5q-12 -22 -29.5 -35.5t-37.5 -21t-40.5 -10t-38.5 -2.5q-67 0 -108.5 36.5t-41.5 106.5v69q0 36 10 61.5t36 48.5h-55q-37 0 -65.5 -10.5
t-47.5 -29.5t-28.5 -44t-9.5 -54v-426h-37v426q0 35 12.5 67t36.5 56.5t60 39t84 14.5h181q39 0 65.5 -11.5t43 -30t23.5 -41.5t7 -46v-92zM412 39q55 0 89 24t34 78v83q0 19 -6 37t-18 31.5t-30.5 21.5t-43.5 8h-46q-50 0 -74 -30.5t-24 -73.5v-72q0 -53 32 -80t87 -27z
" />
    <glyph glyph-name="mim.init" unicode="&#x645;" horiz-adv-x="492" arabic-form="initial" 
d="M20 39q44 0 65 23t21 56v50q0 91 43.5 139t122.5 48q82 0 121.5 -49.5t39.5 -127.5q0 -85 -44 -131.5t-123 -46.5q-41 0 -77.5 15.5t-60.5 59.5q-9 -26 -22 -41t-27 -22.5t-29 -9.5t-30 -2h-20q-13 0 -17.5 5t-4.5 13q0 10 4.5 15.5t17.5 5.5h20zM395 171
q0 66 -28.5 105.5t-97.5 39.5q-61 0 -94.5 -37.5t-33.5 -113.5q0 -62 36 -94t89 -32q64 0 96.5 34.5t32.5 97.5z" />
    <glyph glyph-name="mim.medi" unicode="&#x645;" horiz-adv-x="538" arabic-form="medial" 
d="M20 39q44 0 65 23t21 56v50q0 91 43.5 139t122.5 48q82 0 121.5 -49.5t39.5 -127.5v-41q0 -55 23 -76.5t61 -21.5h21q13 0 17.5 -5.5t4.5 -13.5q0 -10 -4.5 -15t-17.5 -5h-21q-16 0 -31.5 3t-30 11.5t-26 24t-19.5 41.5q-27 -49 -65.5 -64.5t-78.5 -15.5
q-41 0 -77.5 15.5t-60.5 59.5q-9 -26 -22 -41t-27 -22.5t-29 -9.5t-30 -2h-20q-13 0 -17.5 5t-4.5 13q0 10 4.5 15.5t17.5 5.5h20zM395 171q0 66 -28.5 105.5t-97.5 39.5q-61 0 -94.5 -37.5t-33.5 -113.5q0 -62 36 -94t89 -32q64 0 96.5 34.5t32.5 97.5z" />
    <glyph glyph-name="nun.fina" unicode="&#x646;" horiz-adv-x="695" arabic-form="final" 
d="M684 0q-27 0 -53 10.5t-42 34.5v-28q0 -52 -17 -99t-48.5 -82.5t-76.5 -56.5t-101 -21h-56q-112 0 -174 69t-62 189v172h37v-171q0 -49 12.5 -89.5t38 -70t64.5 -45.5t91 -16h44q51 0 90 17.5t66 47.5t41 69t14 83v269h37v-158q0 -37 26 -61t69 -24h11q23 0 23 -19
q0 -20 -23 -20h-11zM344 308h-64v52h64v-52z" />
    <glyph glyph-name="nun.init" unicode="&#x646;" horiz-adv-x="284" arabic-form="initial" 
d="M89 39q43 0 71.5 24.5t28.5 64.5v154h36v-150q0 -61 -37.5 -96.5t-97.5 -35.5h-90q-13 0 -17.5 5t-4.5 13q0 10 4.5 15.5t17.5 5.5h89zM203 417h-64v52h64v-52z" />
    <glyph glyph-name="nun.medi" unicode="&#x646;" horiz-adv-x="345" arabic-form="medial" 
d="M80 39q48 0 74 24.5t26 64.5v154h38v-154q0 -26 8.5 -43t22 -27t30 -14.5t32.5 -4.5h34q23 0 23 -19q0 -20 -23 -20h-34q-36 0 -67 14t-48 53q-21 -39 -51.5 -53t-64.5 -14h-80q-13 0 -17.5 5t-4.5 13q0 10 4.5 15.5t17.5 5.5h80zM223 417h-64v52h64v-52z" />
    <glyph glyph-name="he.fina" unicode="&#x647;" horiz-adv-x="502" arabic-form="final" 
d="M220 80q62 0 100.5 24.5t38.5 60.5v189h-134q-60 0 -95 -42.5t-35 -111.5q0 -35 8.5 -58t24.5 -37t39 -19.5t53 -5.5zM396 157q0 -26 4.5 -47.5t15 -37t29 -24.5t45.5 -9h12q12 0 16.5 -5.5t4.5 -13.5q0 -10 -4.5 -15t-16.5 -5h-12q-43 0 -76.5 20.5t-47.5 78.5
q-12 -17 -31 -28t-40.5 -17t-43 -8.5t-39.5 -2.5q-75 0 -114 36t-39 115q0 37 10.5 72.5t31.5 63.5t53 45t75 17h130v71h37v-306z" />
    <glyph glyph-name="he.init" unicode="&#x647;" horiz-adv-x="723" arabic-form="initial" 
d="M266 336q-30 0 -55 -11t-42 -29.5t-26.5 -43t-9.5 -51.5q0 -32 14 -56.5t35.5 -43t46.5 -31t47 -21.5q16 9 38 21.5t41 30.5t32.5 41.5t13.5 54.5q0 61 -36 100t-99 39zM0 0q-13 0 -17.5 5t-4.5 13q0 10 4.5 15.5t17.5 5.5h229q-59 25 -96 65.5t-37 99.5q0 33 12 63.5
t34.5 54.5t55.5 38t74 14t72 -14.5t51.5 -37.5t31 -52.5t10.5 -60.5q0 -52 -28 -93.5t-90 -76.5h205q49 0 77.5 23.5t28.5 61.5q0 19 -8 40t-28 42l-193 215l29 27l194 -218q25 -29 35 -55.5t10 -52.5q0 -54 -38 -88t-106 -34h-110q-45 0 -81 1.5t-57 10.5q-14 -5 -34.5 -7
t-42 -3.5t-42 -1.5h-34.5h-124z" />
    <glyph glyph-name="he.medi" unicode="&#x647;" horiz-adv-x="542" arabic-form="medial" 
d="M106 39v128q0 35 8 71t26.5 65.5t49 48.5t76.5 19q37 0 65.5 -12t47 -32.5t28 -48.5t9.5 -61q0 -44 -21 -83.5t-57.5 -68.5t-87 -46.5t-108.5 -18.5v-80q0 -35 6.5 -57.5t18.5 -36.5t28 -21t34 -9l103 138q28 37 52 58t48 31.5t50.5 13t59.5 2.5q13 0 17.5 -5.5
t4.5 -13.5q0 -10 -4.5 -15t-17.5 -5q-34 0 -58.5 -2.5t-46.5 -12t-43 -30t-48 -56.5l-103 -141q-28 0 -53 8t-43.5 27t-29.5 50t-11 76v81h-106q-13 0 -17.5 5t-4.5 13q0 10 4.5 15.5t17.5 5.5h106zM142 38q58 0 102.5 15.5t74.5 39.5t45.5 54.5t15.5 61.5q0 54 -28 89
t-86 35t-91 -44t-33 -122v-129z" />
    <glyph glyph-name="vav.fina" unicode="&#x648;" horiz-adv-x="498" arabic-form="final" 
d="M148 -204q48 0 86 16.5t64 44.5t40 65t16 78h-124q-51 0 -84 11t-52 31.5t-26.5 49t-7.5 64.5q0 37 10.5 71t31.5 59.5t52 41t72 15.5q33 0 63 -11t53 -34t36.5 -60t13.5 -89v-110h106q12 0 16.5 -5.5t4.5 -13.5q0 -10 -4.5 -15t-16.5 -5h-108q-3 -49 -20 -93t-47.5 -77
t-73 -52.5t-96.5 -19.5h-108l-6 38h109zM97 157q0 -31 6.5 -53.5t23.5 -36.5t46 -21t73 -7h108v96q0 90 -35.5 130t-98.5 40q-58 0 -90.5 -41t-32.5 -107z" />
    <glyph glyph-name="alef.maksura.fina" unicode="&#x649;" horiz-adv-x="707" arabic-form="final" 
d="M379 -204q56 0 95 13t64 33t36 45t11 49q0 28 -13.5 46t-45.5 18h-186l6 39h361q22 0 22 -19q0 -20 -22 -20h-107q12 -12 17 -28t5 -34q0 -27 -11.5 -58.5t-39 -58.5t-73 -45t-112.5 -18h-96q-112 0 -174 69t-62 189v172h37v-171q0 -49 12.5 -89.5t38 -70t64.5 -45.5
t91 -16h82z" />
    <glyph glyph-name="ye.arab.fina" unicode="&#x64a;" horiz-adv-x="707" arabic-form="final" 
d="M379 -204q56 0 95 13t64 33t36 45t11 49q0 28 -13.5 46t-45.5 18h-186l6 39h361q22 0 22 -19q0 -20 -22 -20h-107q12 -12 17 -28t5 -34q0 -27 -11.5 -58.5t-39 -58.5t-73 -45t-112.5 -18h-96q-112 0 -174 69t-62 189v172h37v-171q0 -49 12.5 -89.5t38 -70t64.5 -45.5
t91 -16h82zM402 -410h-56v51h56v-51zM284 -410h-58v51h58v-51z" />
    <glyph glyph-name=".notdef" horiz-adv-x="530" 
d="M462 0h-396v610h396v-610zM103 572v-533h323v533h-323z" />
    <glyph glyph-name=".null" horiz-adv-x="957" 
 />
    <glyph glyph-name="nonmarkingreturn" horiz-adv-x="957" 
 />
    <glyph glyph-name="line_feed" unicode="&#xa;" 
 />
    <glyph glyph-name="carriage_return" unicode="&#xd;" 
 />
    <glyph glyph-name="space" unicode=" " horiz-adv-x="162" 
 />
    <glyph glyph-name="exclam" unicode="!" horiz-adv-x="194" 
d="M116 470q0 -51 -0.5 -88t-1 -68.5t-2 -61.5t-4.5 -67h-22q-2 37 -3.5 67t-2.5 61.5t-1.5 68.5t-0.5 88v126h38v-126zM97 0q-19 0 -25.5 9t-6.5 29q0 22 6.5 31t25.5 9q18 0 25 -9t7 -31q0 -20 -7 -29t-25 -9z" />
    <glyph glyph-name="quotedbl" unicode="&#x22;" horiz-adv-x="268" 
d="M64 610h36v-236h-36v236zM170 610h36v-236h-36v236z" />
    <glyph glyph-name="numbersign" unicode="#" horiz-adv-x="696" 
d="M240 398h-164v35h169l30 166l29 -4l-27 -162h188l31 166l29 -4l-28 -162h145v-35h-152l-34 -196h164v-36h-169l-30 -166l-29 4l28 162h-188l-31 -166l-30 4l29 162h-146v36h152zM425 202l34 196h-188l-34 -196h188z" />
    <glyph glyph-name="quotesingle" unicode="'" horiz-adv-x="163" 
d="M64 610h36v-236h-36v236z" />
    <glyph glyph-name="parenleft" unicode="(" horiz-adv-x="284" 
d="M91 214q0 -67 8 -119.5t25.5 -96.5t44 -82t62.5 -75l-23 -23q-35 35 -63.5 73.5t-48.5 85t-31 103.5t-11 129t11 129t31 103.5t48.5 84.5t63.5 73l23 -22q-36 -38 -62.5 -75.5t-44 -80.5t-25.5 -93.5t-8 -113.5z" />
    <glyph glyph-name="parenright" unicode=")" horiz-adv-x="284" 
d="M193.006 204.013q0 66.9961 -8 119.493q-7.99902 52.4971 -25.498 96.4941t-43.9971 81.9951q-26.499 37.9971 -62.4971 74.9951l22.999 22.999q34.998 -34.998 63.4961 -73.4961q28.498 -38.4971 48.4971 -84.9941q19.999 -46.498 30.998 -103.494t10.999 -128.992
q0 -71.9951 -10.999 -128.992q-10.999 -56.9961 -30.998 -103.493q-19.999 -46.498 -48.4971 -84.4951q-28.498 -37.998 -63.4961 -72.9961l-22.999 21.999q35.998 37.998 62.4971 75.4951q26.498 37.498 43.9971 80.4951q17.499 42.998 25.498 93.4941q8 50.4971 8 113.493
z" />
    <glyph glyph-name="asterisk" unicode="*" horiz-adv-x="507" 
d="M146 224l-29 24l109 146l-172 60l12 34l171 -62l-1 185h35l-1 -185l171 62l12 -34l-173 -60l109 -146l-29 -24l-106 151z" />
    <glyph glyph-name="plus" unicode="+" horiz-adv-x="510" 
d="M54 177v36h185v179h36v-179h181v-36h-181v-177h-36v177h-185z" />
    <glyph glyph-name="hyphen_minus" unicode="-" horiz-adv-x="510" 
d="M54 177v37h402v-37h-402z" />
    <glyph glyph-name="period" unicode="." horiz-adv-x="196" 
d="M98 0q-19 0 -26 10t-7 30q0 22 7 31t26 9t26 -9t7 -31q0 -20 -7 -30t-26 -10z" />
    <glyph glyph-name="slash" unicode="/" horiz-adv-x="533" 
d="M449 569l30 -19l-395 -627l-30 19z" />
    <glyph glyph-name="zero" unicode="0" horiz-adv-x="559" 
d="M501 255q0 -81 -17.5 -141t-47.5 -99t-70.5 -58t-86.5 -19t-86.5 19t-70.5 58t-47 99t-17 141q0 82 17 142t47 99t70.5 58t86.5 19t86.5 -19t70.5 -58t47.5 -99t17.5 -142zM465 255q0 77 -15 131.5t-40.5 89.5t-59.5 51.5t-71 16.5q-38 0 -71.5 -16.5t-59 -51.5
t-40.5 -89.5t-15 -131.5t15 -131.5t40.5 -89.5t59 -51t71.5 -16q37 0 71 16t59.5 51t40.5 89.5t15 131.5z" />
    <glyph glyph-name="one" unicode="1" horiz-adv-x="327" 
d="M226 568v-623h-33v548v15.5t1 15.5l-137 -124q-5 -5 -11.5 -5t-10.5 6l-10 11l175 156h26z" />
    <glyph glyph-name="two" unicode="2" horiz-adv-x="488" 
d="M427 -24q12 0 12 -11v-20h-398v12q0 8 8 16l214 216q27 27 50 52.5t40 52t26.5 54t9.5 58.5q0 36 -12 62t-32 43t-46 25t-54 8q-62 0 -101.5 -35t-49.5 -92q-7 -15 -19 -12l-18 2q11 78 62.5 122t126.5 44q36 0 68 -10t56.5 -31t39 -52t14.5 -73q0 -36 -11 -66t-30 -58
t-43 -54t-51 -53l-200 -204q12 2 26.5 3t30.5 1h281z" />
    <glyph glyph-name="three" unicode="3" horiz-adv-x="505" 
d="M69 407q11 78 62 122t127 44q34 0 65.5 -10t55.5 -29.5t38 -49t14 -68.5q0 -30 -10 -55t-27.5 -43.5t-40.5 -31.5t-49 -19q71 -10 107 -50.5t36 -102.5q0 -38 -15 -70t-41.5 -55.5t-62.5 -37t-78 -13.5q-54 0 -90 14.5t-58.5 37.5t-34 51t-18.5 55l12 6q6 2 13 1t10 -10
q3 -7 9.5 -28t24 -43t49 -39t82.5 -17q41 0 71.5 13.5t51 35t31 47.5t10.5 50q0 30 -9.5 55.5t-31 44t-57 29t-86.5 11.5v24q82 2 125 39t43 97q0 34 -11.5 59t-31 41t-44.5 24t-53 8q-63 0 -102.5 -35t-50.5 -92q-5 -15 -18 -12z" />
    <glyph glyph-name="four" unicode="4" horiz-adv-x="525" 
d="M340 154v340q0 7 0.5 13.5t1.5 14.5l-278 -368h276zM488 154v-19q0 -8 -10 -8h-107v-182h-31v182h-297q-10 0 -12 7l-4 17l314 415h30v-412h117z" />
    <glyph glyph-name="five" unicode="5" horiz-adv-x="469" 
d="M110 317q60 15 109 15q48 0 85 -14t61.5 -38.5t37 -59t12.5 -74.5q0 -49 -17 -87.5t-45.5 -65.5t-67 -41t-81.5 -14q-52 0 -93 16t-67 36l10 14q2 4 4.5 4.5t7.5 0.5t15.5 -6.5t28 -14t41 -14t55.5 -6.5q37 0 68.5 12t55 34.5t37 55.5t13.5 76q0 69 -40.5 113.5
t-126.5 44.5q-26 0 -54.5 -4t-60.5 -14l-23 8l49 271h276v-14q0 -7 -4.5 -12t-15.5 -5h-231z" />
    <glyph glyph-name="six" unicode="6" horiz-adv-x="510" 
d="M254 -34q39 0 70.5 12t53.5 33.5t33.5 51t11.5 64.5q0 75 -44 117.5t-114 42.5q-40 0 -71.5 -14t-53 -36t-33 -50t-11.5 -56q0 -36 11 -66t31.5 -52t50 -34.5t65.5 -12.5zM124 242q25 33 64.5 52t85.5 19q40 0 74 -13t59 -37t38.5 -58t13.5 -75q0 -42 -15 -77.5
t-42.5 -61t-65 -39.5t-82.5 -14q-43 0 -78 13.5t-60.5 39.5t-39.5 63.5t-14 85.5q0 37 18.5 82t60.5 103l172 233q2 4 7.5 5.5t10.5 1.5h31l-185 -244q-17 -23 -30.5 -42t-22.5 -37z" />
    <glyph glyph-name="seven" unicode="7" horiz-adv-x="456" 
d="M440 565v-15q0 -10 -4 -18l-291 -574q-6 -13 -21 -13h-23l292 572q3 5 5.5 9.5t5.5 7.5h-364q-11 0 -11 11v20h411z" />
    <glyph glyph-name="eight" unicode="8" horiz-adv-x="511" 
d="M255 -36q75 0 120 39t45 105q0 43 -16 71t-40 44.5t-53 23.5t-56 7q-26 0 -55 -7t-53.5 -23.5t-40.5 -44.5t-16 -71q0 -66 45.5 -105t119.5 -39zM255 546q-68 0 -106 -37.5t-38 -93.5q0 -26 8.5 -50t26.5 -42.5t45 -29.5t64 -11t64 11t45 29.5t26.5 42.5t8.5 50
q0 56 -37.5 93.5t-106.5 37.5zM315 269q30 -6 55.5 -19t44 -32.5t29.5 -46.5t11 -63q0 -40 -14.5 -71.5t-41 -53.5t-63.5 -33.5t-81 -11.5t-81 11.5t-63.5 33.5t-41 53.5t-14.5 71.5q0 36 11 63t29.5 46.5t44 32.5t55.5 19q-57 14 -87 53t-30 93q0 33 12 62t35 50.5t56 33.5
t74 12t74 -12t56 -33.5t35 -50.5t12 -62q0 -54 -30 -93t-87 -53z" />
    <glyph glyph-name="nine" unicode="9" horiz-adv-x="467" 
d="M73 391q0 -72 41 -113t109 -41q39 0 69.5 13.5t51.5 34.5t32 48t11 54q0 35 -11.5 64t-32 49.5t-49 32t-61.5 11.5q-36 0 -65.5 -11.5t-50.5 -31.5t-32.5 -48t-11.5 -62zM311 203q17 23 29.5 41.5t21.5 37.5q-24 -33 -63.5 -52.5t-84.5 -19.5q-39 0 -71 13t-55.5 36.5
t-36.5 56.5t-13 72t14.5 73t41 59t62.5 39t78 14q40 0 74.5 -14t59 -39.5t38.5 -61t14 -78.5q0 -47 -20.5 -89t-57.5 -95l-166 -244q-5 -7 -16 -7h-32z" />
    <glyph glyph-name="colon" unicode=":" horiz-adv-x="196" 
d="M98 242q-19 0 -26 10t-7 30q0 22 7 31t26 9t26 -9t7 -31q0 -20 -7 -30t-26 -10zM98 0q-19 0 -26 10t-7 30q0 22 7 31t26 9t26 -9t7 -31q0 -20 -7 -30t-26 -10z" />
    <glyph glyph-name="less" unicode="&#x3c;" horiz-adv-x="454" 
d="M400 21l-16 -34l-330 179v41l330 181l16 -35l-310 -166z" />
    <glyph glyph-name="equal" unicode="=" horiz-adv-x="510" 
d="M54 88v37h402v-37h-402zM54 267v37h402v-37h-402z" />
    <glyph glyph-name="greater" unicode="&#x3e;" horiz-adv-x="454" 
d="M54.0244 21l15.999 -34l329.979 179v41l-329.979 181l-15.999 -35l309.981 -166z" />
    <glyph glyph-name="bracketleft" unicode="[" horiz-adv-x="303" 
d="M250 594v-37h-149v-697h149v-36h-186v770h186z" />
    <glyph glyph-name="backslash" unicode="\" horiz-adv-x="533" 
d="M84.0273 569l-29.998 -19l394.976 -627l29.998 19z" />
    <glyph glyph-name="bracketright" unicode="]" horiz-adv-x="303" 
d="M53.0156 594v-37h148.99v-697h-148.99v-36h185.988v770h-185.988z" />
    <glyph glyph-name="underscore" unicode="_" horiz-adv-x="491" 
d="M54 33h383v-34h-383v34z" />
    <glyph glyph-name="braceleft" unicode="{" horiz-adv-x="342" 
d="M54 223q30 3 47 17.5t25.5 39t10.5 59t2 78.5q0 40 3 72.5t15 55.5t36 36t66 13h29v-37h-24q-27 0 -44.5 -7t-27 -23.5t-13 -43t-3.5 -65.5q0 -45 -2 -79t-9 -59.5t-21 -43.5t-39 -30q25 -12 39 -30t21 -44t9 -60t2 -79q0 -39 3.5 -65t13 -41t27 -21t44.5 -6h24v-36h-29
q-42 0 -66 11.5t-36 33.5t-15 53.5t-3 70.5q0 43 -2 78.5t-10.5 60.5t-25.5 39t-47 16v36z" />
    <glyph glyph-name="bar" unicode="|" horiz-adv-x="165" 
d="M102 -176h-38v770h38v-770z" />
    <glyph glyph-name="braceright" unicode="}" horiz-adv-x="342" 
d="M288.003 223q-29.998 3 -46.9971 17.5t-25.498 39q-8.5 24.5 -10.499 59q-2 34.5 -2 78.5q0 40 -3 72.5t-14.999 55.5t-35.998 36q-23.998 13 -65.9961 13h-28.998v-37h23.998q26.999 0 44.498 -7t26.998 -23.5t12.999 -43t3.5 -65.5q0 -45 2 -79t8.99902 -59.5
q7 -25.5 20.999 -43.5t38.998 -30q-24.999 -12 -38.998 -30t-20.999 -44q-6.99902 -26 -8.99902 -60t-2 -79q0 -39 -3.5 -65t-12.999 -41t-26.998 -21t-44.498 -6h-23.998v-36h28.998q41.998 0 65.9961 11.5q23.999 11.5 35.998 33.5t14.999 53.5t3 70.5q0 43 2 78.5
q1.99902 35.5 10.499 60.5q8.49902 25 25.498 39t46.9971 16v36z" />
    <glyph glyph-name="nonbreakingspace" unicode="&#xa0;" horiz-adv-x="159" 
 />
    <glyph glyph-name="brokenbar" unicode="&#xa6;" horiz-adv-x="165" 
d="M102 280h-38v314h38v-314zM102 -176h-38v313h38v-313z" />
    <glyph glyph-name="guillemotleft" unicode="&#xab;" horiz-adv-x="381" 
d="M90 204q0 -36 4 -68.5t14.5 -64t29.5 -63.5t49 -69l-23 -22q-35 39 -56.5 76.5t-33.5 74t-16 71.5t-4 70t4 70t16 71.5t33.5 74t56.5 76.5l23 -22q-30 -37 -49 -69.5t-29.5 -64.5t-14.5 -66.5t-4 -74.5zM230 204q0 -36 4 -68.5t14.5 -64t29.5 -63.5t49 -69l-23 -22
q-35 39 -56.5 76.5t-33.5 74t-16 71.5t-4 70t4 70t16 71.5t33.5 74t56.5 76.5l23 -22q-30 -37 -49 -69.5t-29.5 -64.5t-14.5 -66.5t-4 -74.5z" />
    <glyph glyph-name="logicalnot" unicode="&#xac;" horiz-adv-x="510" 
d="M420 285h-366v36h402v-260h-36v224z" />
    <glyph glyph-name="softHyphen" unicode="&#xad;" horiz-adv-x="449" 
d="M54 157v37h341v-37h-341z" />
    <glyph glyph-name="degree" unicode="&#xb0;" horiz-adv-x="361" 
d="M54 473q0 26 10 49t27 40t40.5 27t49.5 10t49 -10t40 -27t27 -40t10 -49t-10 -49t-27 -40.5t-40 -27.5t-49 -10t-49.5 10t-40.5 27.5t-27 40.5t-10 49zM87 473q0 -39 27.5 -66t66.5 -27q19 0 36 7t29.5 20t19.5 29.5t7 36.5q0 19 -7 36t-19.5 30t-29.5 20t-36 7
q-39 0 -66.5 -27t-27.5 -66z" />
    <glyph glyph-name="plusminus" unicode="&#xb1;" horiz-adv-x="510" 
d="M54 0v37h402v-37h-402zM54 318v36h185v179h36v-179h181v-36h-181v-177h-36v177h-185z" />
    <glyph glyph-name="paragraph" unicode="&#xb6;" horiz-adv-x="409" 
d="M345 0h-36v561h-104v-561h-36v351q-33 0 -55.5 4t-35.5 16t-18.5 35.5t-5.5 63.5t5.5 64.5t18.5 37.5t35.5 17.5t56.5 4.5h175v-594z" />
    <glyph glyph-name="periodcentered" unicode="&#xb7;" horiz-adv-x="286" 
d="M120 198q-19 0 -26 10t-7 30q0 22 7 31t26 9t26 -9t7 -31q0 -20 -7 -30t-26 -10z" />
    <glyph glyph-name="guillemotright" unicode="&#xbb;" horiz-adv-x="381" 
d="M151.006 204q0 -36 -4 -68.5t-14.499 -64q-10.5 -31.5 -29.498 -63.5q-18.999 -32 -48.9971 -69l22.998 -22q34.998 39 56.4971 76.5q21.498 37.5 33.498 74q11.999 36.5 15.999 71.5q3.99902 35 3.99902 70t-3.99902 70q-4 35 -15.999 71.5q-12 36.5 -33.498 74
q-21.499 37.5 -56.4971 76.5l-22.998 -22q29.998 -37 48.9971 -69.5q18.998 -32.5 29.498 -64.5q10.499 -32 14.499 -66.5t4 -74.5zM291.006 204q0 -36 -4 -68.5t-14.499 -64q-10.5 -31.5 -29.498 -63.5q-18.999 -32 -48.9971 -69l22.998 -22q34.998 39 56.4971 76.5
q21.498 37.5 33.498 74q11.999 36.5 15.999 71.5q3.99902 35 3.99902 70t-3.99902 70q-4 35 -15.999 71.5q-12 36.5 -33.498 74q-21.499 37.5 -56.4971 76.5l-22.998 -22q29.998 -37 48.9971 -69.5q18.998 -32.5 29.498 -64.5q10.499 -32 14.499 -66.5t4 -74.5z" />
    <glyph glyph-name="multiply" unicode="&#xd7;" horiz-adv-x="457" 
d="M54 350l25 26l150 -149l147 148l25 -25l-148 -148l150 -150l-26 -26l-150 151l-148 -149l-25 25l148 148z" />
    <glyph glyph-name="divide" unicode="&#xf7;" horiz-adv-x="510" 
d="M223 62h64v-62h-64v62zM223 452h64v-62h-64v62zM54 208v37h402v-37h-402z" />
    <glyph glyph-name="darhezar" unicode="&#x609;" horiz-adv-x="1045" 
d="M864 210q25 0 48 -11t40.5 -28.5t28 -39.5t10.5 -45q0 -24 -10.5 -46.5t-28 -40t-40.5 -28.5t-48 -11t-47.5 11t-40 28.5t-28 40t-10.5 46.5q0 23 10.5 45t28 39.5t40 28.5t47.5 11zM864 -5q17 0 34 7.5t30 20.5t21 29t8 34q0 17 -8 33t-21 29t-30 20.5t-34 7.5t-34 -7.5
t-30 -20.5t-21 -29t-8 -33q0 -18 8 -34t21 -29t30 -20.5t34 -7.5zM538 210q25 0 48 -11t40.5 -28.5t28 -39.5t10.5 -45q0 -24 -10.5 -46.5t-28 -40t-40.5 -28.5t-48 -11t-47.5 11t-40 28.5t-28 40t-10.5 46.5q0 23 10.5 45t28 39.5t40 28.5t47.5 11zM538 -5q17 0 33.5 7.5
t29.5 20.5t21 29t8 34q0 17 -8 33t-21 29t-29.5 20.5t-33.5 7.5t-34 -7.5t-30 -20.5t-21 -29t-8 -33q0 -18 8 -34t21 -29t30 -20.5t34 -7.5zM181 282q-25 0 -48 11t-40.5 28.5t-28 40t-10.5 45.5t10.5 45.5t28 40t40.5 28t48 10.5t47.5 -10.5t40 -28t28 -40t10.5 -45.5
t-10.5 -45.5t-28 -40t-40 -28.5t-47.5 -11zM181 497q-18 0 -34.5 -7.5t-30 -20t-21.5 -29t-8 -33.5t8 -33.5t21.5 -29t30 -20t34.5 -7.5q17 0 33.5 7.5t30 20t21.5 29t8 33.5t-8 33.5t-21.5 29t-30 20t-33.5 7.5zM542 569l30 -19l-395 -627l-30 19z" />
    <glyph glyph-name="darDahezar" unicode="&#x60a;" horiz-adv-x="1371" 
d="M1190 210q25 0 48 -11t40.5 -28.5t28 -39.5t10.5 -45q0 -24 -10.5 -46.5t-28 -40t-40.5 -28.5t-48 -11t-47.5 11t-40 28.5t-28 40t-10.5 46.5q0 23 10.5 45t28 39.5t40 28.5t47.5 11zM1190 -5q17 0 34 7.5t30 20.5t21 29t8 34q0 17 -8 33t-21 29t-30 20.5t-34 7.5
t-34 -7.5t-30 -20.5t-21 -29t-8 -33q0 -18 8 -34t21 -29t30 -20.5t34 -7.5zM864 210q25 0 48 -11t40.5 -28.5t28 -39.5t10.5 -45q0 -24 -10.5 -46.5t-28 -40t-40.5 -28.5t-48 -11t-47.5 11t-40 28.5t-28 40t-10.5 46.5q0 23 10.5 45t28 39.5t40 28.5t47.5 11zM864 -5
q17 0 34 7.5t30 20.5t21 29t8 34q0 17 -8 33t-21 29t-30 20.5t-34 7.5t-34 -7.5t-30 -20.5t-21 -29t-8 -33q0 -18 8 -34t21 -29t30 -20.5t34 -7.5zM538 210q25 0 48 -11t40.5 -28.5t28 -39.5t10.5 -45q0 -24 -10.5 -46.5t-28 -40t-40.5 -28.5t-48 -11t-47.5 11t-40 28.5
t-28 40t-10.5 46.5q0 23 10.5 45t28 39.5t40 28.5t47.5 11zM538 -5q17 0 33.5 7.5t29.5 20.5t21 29t8 34q0 17 -8 33t-21 29t-29.5 20.5t-33.5 7.5t-34 -7.5t-30 -20.5t-21 -29t-8 -33q0 -18 8 -34t21 -29t30 -20.5t34 -7.5zM181 282q-25 0 -48 11t-40.5 28.5t-28 40
t-10.5 45.5t10.5 45.5t28 40t40.5 28t48 10.5t47.5 -10.5t40 -28t28 -40t10.5 -45.5t-10.5 -45.5t-28 -40t-40 -28.5t-47.5 -11zM181 497q-18 0 -34.5 -7.5t-30 -20t-21.5 -29t-8 -33.5t8 -33.5t21.5 -29t30 -20t34.5 -7.5q17 0 33.5 7.5t30 20t21.5 29t8 33.5t-8 33.5
t-21.5 29t-30 20t-33.5 7.5zM542 569l30 -19l-395 -627l-30 19z" />
    <glyph glyph-name="virgul" unicode="&#x60c;" horiz-adv-x="196" 
d="M98 0q-19 0 -26 10t-7 31q0 44 1.5 70.5t7.5 41.5t19 22.5t37 13.5v-33q-14 -4 -21.5 -8t-11 -11.5t-4 -21t-0.5 -35.5q23 0 30.5 -9t7.5 -31q0 -20 -7 -30t-26 -10z" />
    <glyph glyph-name="tarikh.sep" unicode="&#x60d;" horiz-adv-x="388" 
d="M294 278l30 -20l-230 -368l-30 20z" />
    <glyph glyph-name="noqte_virgul" unicode="&#x61b;" horiz-adv-x="196" 
d="M98 242q-19 0 -26 10t-7 31q0 44 1.5 70.5t7.5 41.5t19 22.5t37 13.5v-33q-14 -4 -21.5 -8t-11 -11.5t-4 -21t-0.5 -35.5q23 0 30.5 -9t7.5 -31q0 -20 -7 -30t-26 -10zM98 0q-19 0 -26 10t-7 30q0 22 7 31t26 9t26 -9t7 -31q0 -20 -7 -30t-26 -10z" />
    <glyph glyph-name="soal" unicode="&#x61f;" horiz-adv-x="415" 
d="M313 423q0 28 -5.5 53t-18 44.5t-33.5 31t-51 11.5q-21 0 -40 -8t-33 -22.5t-22 -33t-8 -39.5q0 -35 17 -59.5t42 -49.5q23 -23 36.5 -39t21 -33t10 -40.5t2.5 -61.5h-37q0 33 -2 52.5t-8 33.5t-18 27.5t-32 33.5q-12 13 -24.5 27t-22 30t-16 34.5t-6.5 41.5q0 33 12 59
t31.5 45t45 29t51.5 10q75 0 109.5 -49t34.5 -128h-36zM209 0q-18 0 -25 9t-7 29q0 22 7 31t25 9t25 -9t7 -31q0 -20 -7 -29t-25 -9z" />
    <glyph glyph-name="kashidas" unicode="&#x640;" horiz-adv-x="165" 
d="M165 39q13 0 17.5 -5.5t4.5 -13.5q0 -10 -4.5 -15t-17.5 -5h-165q-13 0 -17.5 5t-4.5 13q0 10 4.5 15.5t17.5 5.5h165z" />
    <glyph glyph-name=".an" unicode="&#x64b;" 
d="M107 121l11 -26l-225 -95l-11 26zM107 243l11 -26l-225 -95l-11 26z" />
    <glyph glyph-name=".on" unicode="&#x64c;" 
d="M2 78q-35 19 -49 44.5t-14 48.5q0 19 7 36.5t20 31t31 22t39 8.5q42 0 68.5 -27.5t26.5 -67.5q0 -32 -20 -59.5t-74 -50.5l-152 -64l-11 25v95q0 22 -19 22h-45v27h50q17 0 28 -9.5t11 -35.5v-88zM-34 172q0 -26 18 -48t47 -33q27 11 50 30t23 49q0 27 -17.5 50t-50.5 23
q-18 0 -31 -6.5t-22 -17t-13 -23t-4 -24.5z" />
    <glyph glyph-name=".en" unicode="&#x64d;" 
d="M107 -122l11 -26l-225 -95l-11 26zM107 0l11 -26l-225 -95l-11 26z" />
    <glyph glyph-name=".a" unicode="&#x64e;" 
d="M107 121l11 -26l-225 -95l-11 26z" />
    <glyph glyph-name=".o" unicode="&#x64f;" 
d="M-129 26l128 52q-35 19 -48.5 44.5t-13.5 48.5q0 19 7 36.5t19.5 31t30.5 22t39 8.5q42 0 68.5 -27.5t26.5 -67.5q0 -32 -20 -59.5t-74 -50.5l-152 -64zM-37 172q0 -26 18 -48t47 -33q27 11 50 30t23 49q0 27 -17.5 50t-50.5 23q-18 0 -31 -6.5t-22 -17t-13 -23t-4 -24.5
z" />
    <glyph glyph-name=".e" unicode="&#x650;" 
d="M107 0l11 -26l-225 -95l-11 26z" />
    <glyph glyph-name=".shdd" unicode="&#x651;" 
d="M0 12q-15 -12 -29 -12h-26q-13 0 -29.5 4t-31.5 16.5t-25 36t-10 62.5v63h28v-77q0 -44 20 -61t50 -17h39v155h28v-155h39q30 0 50 17t20 61v77h27v-63q0 -39 -10 -62.5t-24.5 -36t-31 -16.5t-29.5 -4h-26q-9 0 -15 2.5t-14 9.5z" />
    <glyph glyph-name=".skn" unicode="&#x652;" 
d="M-105 105q0 21 8.5 40t22.5 33.5t33.5 22.5t40.5 8t40.5 -8t33.5 -22.5t22.5 -33.5t8.5 -40q0 -22 -8.5 -41t-22.5 -33.5t-33.5 -22.5t-40.5 -8t-40.5 8t-33.5 22.5t-22.5 33.5t-8.5 41zM-78 105q0 -16 6.5 -30.5t17 -25t24.5 -16.5t30 -6t30 6t24.5 16.5t16.5 25t6 30.5
q0 32 -22.5 54t-54.5 22t-55 -22t-23 -54z" />
    <glyph glyph-name=".mad" unicode="&#x653;" 
d="M-14 79q-19 0 -31 -2t-23 -10t-23 -24t-30 -43l-19 13q20 32 34 50.5t27.5 28.5t28 12.5t36.5 2.5h153l-5 -28h-148z" />
    <glyph glyph-name=".thmz" unicode="&#x654;" 
d="M100 88l-185 -94l-13 26l75 37q-19 3 -32.5 11.5t-22 21t-12.5 27t-4 28.5q0 42 26 68t68 26h47l-5 -28h-36q-35 0 -53.5 -20t-18.5 -47q0 -31 20.5 -49t46.5 -18q16 0 38 11l50 25z" />
    <glyph glyph-name=".bhmz" unicode="&#x655;" 
d="M100 -150l-185 -94l-13 26l75 37q-19 3 -32.5 11.5t-22 21t-12.5 27t-4 28.5q0 42 26 68t68 26h47l-5 -28h-36q-35 0 -53.5 -20t-18.5 -47q0 -31 20.5 -49t46.5 -18q16 0 38 11l50 25z" />
    <glyph glyph-name=".i" unicode="&#x656;" 
d="M-14 0h28v-171h-28v171z" />
    <glyph glyph-name="sefr.arab" unicode="&#x660;" horiz-adv-x="459" 
d="M229 390q33 0 64.5 -14.5t56.5 -38t40 -54.5t15 -64t-15 -63.5t-40 -54.5t-56.5 -38t-64.5 -14t-64.5 14t-56 38t-39.5 54.5t-15 63.5t15 64t39.5 54.5t56 38t64.5 14.5zM229 86q25 0 50 11t44.5 29t32 42t12.5 51q0 25 -12.5 49t-32 43t-44.5 30.5t-50 11.5t-50 -11.5
t-44.5 -30.5t-32 -43t-12.5 -49q0 -27 12.5 -51t32 -42t44.5 -29t50 -11z" />
    </font>
</defs>
</svg>
